Jedyny taki katalog polskich torrentów w sieci. Najlepsze torrenty w jednym miejscu.

Korzystanie ze strony jest darmowe. W przeciwieństwie do konkurencji nie kasujemy kont użytkowników bez ich wyraźnej prośby.


Torrent: Wielka Woda 2022 [S01] [DUAL] [720p.NF.WEBRip.DDP5.1.Atmos.x264-SMURF] [Serial PL] + [ENG] + [Napisy PL+ENG]

Wielka Woda 2022 [S01] [DUAL] [720p.NF.WEBRip.DDP5.1.Atmos.x264-SMURF] [Serial PL] + [ENG] + [Napisy PL+ENG] torrent
Dodał: Ishimura
06.10.2022 03:02
Kategoria: Seriale obyczajowe

Rozmiar: 6.77 GB
Seed'ów: 11
Leecher'ów: 1
Pobrań: 16

Kondycja:
 


» Komentarze [0]
» Obserwuj
» Zgłoś plik
User image

Info

Produkcja: Polska
Gatunek: Dramat, Katastroficzny
Twórca: Jan Holoubek
Platforma: Netflix
Premiera: 2022

Opis

Wrocław, rok 1997. Naukowcy i lokalne władze muszą podjąć szereg niewyobrażalnie trudnych decyzji, gdy do miasta zbliża się potężna fala powodziowa.

Obsada

Agnieszka Żulewska
Tomasz Schuchardt
Ireneusz Czop
Anna Dymna
Jerzy Trela
Mirosław Kropielnicki
Blanka Kot
Tomasz Kot
Adam Nawojczyk
Leszek Lichota
Marta Nieradkiewicz
Łukasz Lewandowski
Roman Gancarczyk
Tomasz Sapryk
Maria Maj

https://www.youtube.com/watch?v=hcz6MNjTCE4

Dane Techniczne

User image

Info

Produkcja: Polska
Gatunek: Dramat, Katastroficzny
Twórca: Jan Holoubek
Platforma: Netflix
Premiera: 2022

Opis

Wrocław, rok 1997. Naukowcy i lokalne władze muszą podjąć szereg niewyobrażalnie trudnych decyzji, gdy do miasta zbliża się potężna fala powodziowa.

Obsada

Agnieszka Żulewska
Tomasz Schuchardt
Ireneusz Czop
Anna Dymna
Jerzy Trela
Mirosław Kropielnicki
Blanka Kot
Tomasz Kot
Adam Nawojczyk
Leszek Lichota
Marta Nieradkiewicz
Łukasz Lewandowski
Roman Gancarczyk
Tomasz Sapryk
Maria Maj

https://www.youtube.com/watch?v=hcz6MNjTCE4

Dane Techniczne

Video
ID : 1
Format : AVC
Format/Info : Advanced Video Codec
Format profile : MainL3.1
Format settings : CABAC / 3 Ref Frames
Format settings, CABAC : Yes
Format settings, Reference frames : 3 frames
Codec ID : V_MPEG4/ISO/AVC
Duration : 46 min 20 s
Bit rate mode : Variable
Bit rate : 2 569 kb/s
Nominal bit rate : 3 160 kb/s
Maximum bit rate : 4 740 kb/s
Width : 1 280 pixels
Height : 720 pixels
Display aspect ratio : 16:9
Frame rate mode : Constant
Frame rate : 25.000 FPS
Color space : YUV
Chroma subsampling : 4:2:0
Bit depth : 8 bits
Scan type : Progressive
Bits/(PixelFrame) : 0.112
Stream size : 852 MiB (65)
Writing library : x264 core 148 r2727 7d026e8
Encoding settings : cabac=1 / ref=3 / deblock=1:0:0 / analyse=0x1:0x111 / me=umh / subme=10 / psy=1 / psy_rd=1.00:0.00 / mixed_ref=1 / me_range=24 / chroma_me=1 / trellis=2 / 8x8dct=0 / cqm=0 / deadzone=21,11 / fast_pskip=1 / chroma_qp_offset=-2 / threads=8 / lookahead_threads=1 / sliced_threads=0 / nr=0 / decimate=1 / interlaced=0 / bluray_compat=0 / stitchable=1 / constrained_intra=0 / bframes=2 / b_pyramid=0 / b_adapt=2 / b_bias=0 / direct=3 / weightb=1 / open_gop=0 / weightp=2 / keyint=250 / keyint_min=25 / scenecut=0 / intra_refresh=0 / rc_lookahead=50 / rc=2pass / mbtree=1 / bitrate=3160 / ratetol=1.0 / qcomp=0.50 / qpmin=6 / qpmax=51 / qpstep=4 / cplxblur=20.0 / qblur=0.5 / vbv_maxrate=4740 / vbv_bufsize=6320 / nal_hrd=vbr / filler=0 / ip_ratio=1.40 / aq=1:1.00
Language : Polish
Default : Yes
Forced : No

Audio #1
ID : 2
Format : E-AC-3 JOC
Format/Info : Enhanced AC-3 with Joint Object Coding
Commercial name : Dolby Digital Plus with Dolby Atmos
Codec ID : A_EAC3
Duration : 46 min 20 s
Bit rate mode : Constant
Bit rate : 768 kb/s
Channel(s) : 6 channels
Channel layout : L R C LFE Ls Rs
Sampling rate : 48.0 kHz
Frame rate : 31.250 FPS (1536 SPF)
Compression mode : Lossy
Stream size : 255 MiB (19)
Language : Polish
Service kind : Complete Main
Default : Yes
Forced : No
Complexity index : 16
Number of dynamic objects : 15
Bed channel count : 1 channel
Bed channel configuration : LFE

Audio #2
ID : 3
Format : E-AC-3
Format/Info : Enhanced AC-3
Commercial name : Dolby Digital Plus
Codec ID : A_EAC3
Duration : 46 min 20 s
Bit rate mode : Constant
Bit rate : 640 kb/s
Channel(s) : 6 channels
Channel layout : L R C LFE Ls Rs
Sampling rate : 48.0 kHz
Frame rate : 31.250 FPS (1536 SPF)
Compression mode : Lossy
Stream size : 212 MiB (16)
Language : English
Service kind : Complete Main
Default : No
Forced : No

Text #1
ID : 4
Format : UTF-8
Codec ID : S_TEXT/UTF8
Codec ID/Info : UTF-8 Plain Text
Duration : 12 min 48 s
Bit rate : 9 b/s
Frame rate : 0.047 FPS
Count of elements : 36
Stream size : 874 Bytes (0)
Title : Forced
Language : Polish
Default : Yes
Forced : Yes

Text #2
ID : 5
Format : UTF-8
Codec ID : S_TEXT/UTF8
Codec ID/Info : UTF-8 Plain Text
Duration : 40 min 40 s
Bit rate : 42 b/s
Frame rate : 0.180 FPS
Count of elements : 440
Stream size : 12.6 KiB (0)
Language : Polish
Default : No
Forced : No

Text #3
ID : 6
Format : UTF-8
Codec ID : S_TEXT/UTF8
Codec ID/Info : UTF-8 Plain Text
Duration : 41 min 47 s
Bit rate : 54 b/s
Frame rate : 0.216 FPS
Count of elements : 542
Stream size : 16.7 KiB (0)
Title : SDH
Language : Polish
Default : No
Forced : No

Text #4
ID : 7
Format : UTF-8
Codec ID : S_TEXT/UTF8
Codec ID/Info : UTF-8 Plain Text
Duration : 45 min 5 s
Bit rate : 3 b/s
Frame rate : 0.017 FPS
Count of elements : 46
Stream size : 1.27 KiB (0)
Title : Forced
Language : English
Default : No
Forced : Yes

Text #5
ID : 8
Format : UTF-8
Codec ID : S_TEXT/UTF8
Codec ID/Info : UTF-8 Plain Text
Duration : 45 min 5 s
Bit rate : 45 b/s
Frame rate : 0.174 FPS
Count of elements : 472
Stream size : 15.0 KiB (0)
Language : English
Default : No
Forced : No

Text #6
ID : 9
Format : UTF-8
Codec ID : S_TEXT/UTF8
Codec ID/Info : UTF-8 Plain Text
Duration : 45 min 5 s
Bit rate : 36 b/s
Frame rate : 0.158 FPS
Count of elements : 428
Stream size : 12.2 KiB (0)
Language : English
Default : No
Forced : No

Text #7
ID : 10
Format : UTF-8
Codec ID : S_TEXT/UTF8
Codec ID/Info : UTF-8 Plain Text
Duration : 45 min 5 s
Bit rate : 53 b/s
Frame rate : 0.200 FPS
Count of elements : 541
Stream size : 17.6 KiB (0)
Title : SDH
Language : English
Default : No
Forced : No
Ocena użytkowników Help
Działa(0) | Fake(0) | Nie działa(0) | Wymagane hasło(0) | Wirus(0)
Statystyki seed/leech Ostatnio aktualizowane: 2022-11-26 17:38:53 [Aktualizuj]
Napisano: 26.11.2022 22:42
 
Nikt jeszcze nie skomentował tego torrenta... Może Ty to zrobisz?
Oświadczenie: Pliki prezentowane w katalogu nie znajdują się na serwerach wortalu. Użytkownicy zezwolili na ich udostępnienie. Administrator serwisu BitNova.info oraz właściciel serwera nie może ponieść konsekwencji za to co użytkownicy udostępniają i publikują. Pamiętaj! Nie możesz używać tego serwisu do rozpowszechniania lub ściągania materiałów do których nie masz odpowiednich praw lub licencji. Użytkownicy są odpowiedzialni za przestrzeganie tych zasad.

(Disclaimer: None files presented in the directory aren't hosted on servers vortal. Users allow their release. The administrator of site BitNova.info and owner of the server can not be held responsible for what its users post, or any other actions of its users. You may not use this site to distribute or download any material when you do not have the legal rights to do so. It is your own responsibility to adhere to these terms.)
» Zgłaszanie nadużyć / Abuse