Jedyny taki katalog polskich torrentów w sieci. Najlepsze torrenty w jednym miejscu.

Korzystanie ze strony jest darmowe. W przeciwieństwie do konkurencji nie kasujemy kont użytkowników bez ich wyraźnej prośby.


Torrent: Postrach nocy / Fright Night 1985 [2160p] [WEB-DL] [H265] [10bit] [HDR] [Lektor PL]

Postrach nocy / Fright Night 1985 [2160p] [WEB-DL] [H265] [10bit] [HDR] [Lektor PL] torrent
Dodał: Ishimura
27.09.2022 03:26
Kategoria: Horror

Rozmiar: 4.39 GB
Seed'ów: 3
Leecher'ów: 0
Pobrań: 10

Kondycja:
 


» Komentarze [0]
» Obserwuj
» Zgłoś plik
Tytuł: Postrach nocy / Fright Night
Produkcja: USA
Gatunek: Horror
Premiera: 2 sierpnia 1985 (świat)
Reżyseria: Tom Holland
Scenariusz: Tom Holland
Czas trwania: 1 godz. 46 min.


https://www.filmweb.pl/film/Postrach+nocy-1985-34260
https://www.imdb.com/title/tt0089175/

Pewien nastolatek Charley Brewster odkrywa tajemnicę mieszkającego w sąsiedztwie nowego lokatora. Niesamowity sąsiad wychodzi tylko nocą obnażając swe prawdziwe oblicze. Kłopot w tym, że nikt chłopcu nie wierzy..

William Ragsdale ....... Charley Brewster
Amanda Bearse ....... Amy Peterson
Chris Sarandon ....... Jerry Dandrige
Roddy McDowall ....... Peter Vincent


Video
ID : 1
Format : HEVC
Format/Info : High Efficiency Video Coding
Format profile : Main [url=/cdn-cgi/l/email-protection][email protected][/url] at Main
Codec ID : V_MPEGH/ISO/HEVC
Duration : 1 h 46 min
Bit rate : 5 766 kb/s
Width : 3 840 pixels
Height : 1 592 pixels
Display aspect ratio : 2.40:1
Frame rate mode : Constant
Frame rate : 23.976 (24000/1001) FPS
Color space : YUV
Chroma subsampling : 4:2:0
Bit depth : 10 bits
Bits/(PixelFrame) : 0.039
Stream size : 4.29 GiB (98)

Audio
ID : 2
Format : MPEG Audio
Format version : Version 1
Format profile : Layer 3
Format settings : Joint stereo / MS Stereo
Codec ID : A_MPEG/L3
Codec ID/Hint : MP3
Duration : 1 h 46 min
Bit rate mode : Constant
Bit rate : 128 kb/s
Channel(s) : 2 channels
Sampling rate : 44.1 kHz
Frame rate : 38.281 FPS (1152 SPF)
Compression mode : Lossy
Stream size : 97.5 MiB (2)
Ocena użytkowników Help
Działa(0) | Fake(0) | Nie działa(0) | Wymagane hasło(0) | Wirus(0)
Statystyki seed/leech Ostatnio aktualizowane: 2022-10-02 09:20:57 [Aktualizuj]
Napisano: 26.11.2022 23:00
 
Nikt jeszcze nie skomentował tego torrenta... Może Ty to zrobisz?
Oświadczenie: Pliki prezentowane w katalogu nie znajdują się na serwerach wortalu. Użytkownicy zezwolili na ich udostępnienie. Administrator serwisu BitNova.info oraz właściciel serwera nie może ponieść konsekwencji za to co użytkownicy udostępniają i publikują. Pamiętaj! Nie możesz używać tego serwisu do rozpowszechniania lub ściągania materiałów do których nie masz odpowiednich praw lub licencji. Użytkownicy są odpowiedzialni za przestrzeganie tych zasad.

(Disclaimer: None files presented in the directory aren't hosted on servers vortal. Users allow their release. The administrator of site BitNova.info and owner of the server can not be held responsible for what its users post, or any other actions of its users. You may not use this site to distribute or download any material when you do not have the legal rights to do so. It is your own responsibility to adhere to these terms.)
» Zgłaszanie nadużyć / Abuse