Jedyny taki katalog polskich torrentów w sieci. Najlepsze torrenty w jednym miejscu.

Korzystanie ze strony jest darmowe. W przeciwieństwie do konkurencji nie kasujemy kont użytkowników bez ich wyraźnej prośby.


Torrent: Thor Miłość i Grom - Thor Love and Thunder (2022) [1080p.HDQCAM] [AC3.DUB.PL] [MD] [TeaM-EnTeR1973]

Thor Miłość i Grom - Thor Love and Thunder (2022) [1080p.HDQCAM] [AC3.DUB.PL] [MD] [TeaM-EnTeR1973] torrent
Dodał: seybr1
18.08.2022 13:42
Kategoria: Sci-Fi

Rozmiar: 3.19 GB
Seed'ów: 1
Leecher'ów: 0
Pobrań: 10

Kondycja:
 


» Komentarze [5]
» Obserwuj
» Zgłoś plik
Thor Love and Thunder (2022) [1080p.HDQCAM] [AC3.DUB.PL] [MD] [TeaM-EnTeR1973].mkv
Format : Matroska
Format version : Version 4
File size : 3.19 GiB
Duration : 1 h 50 min
Overall bit rate mode : Variable
Overall bit rate : 4 150 kb/s
Movie name : Thor Miłość i Grom - Thor Love and Thunder (2022) [1080p.HDQCAM] [AC3.DUB.PL] [MD] [TeaM-EnTeR1973]
Encoded date : UTC 2022-07-13 10:56:00
Writing application : mkvmerge v65.0.0 ('Too Much') 64-bit
Writing library : libebml v1.4.2 + libmatroska v1.6.4
Cover : Yes
Attachments : cover.jpg

Video
ID : 1
Format : AVC
Format/Info : Advanced Video Codec
Format profile : High@L4
Format settings : CABAC / 1 Ref Frames
Format settings, CABAC : Yes
Format settings, Reference : 1 frame
Format settings, GOP : M=1, N=23
Codec ID : V_MPEG4/ISO/AVC
Duration : 1 h 50 min
Bit rate mode : Variable
Bit rate : 3 892 kb/s
Maximum bit rate : 3 993 kb/s
Width : 1 920 pixels
Height : 1 080 pixels
Display aspect ratio : 16:9
Frame rate mode : Constant
Frame rate : 23.976 (24000/1001) FPS
Color space : YUV
Chroma subsampling : 4:2:0
Bit depth : 8 bits
Scan type : Progressive
Bits/(Pixel*Frame) : 0.078
Stream size : 2.99 GiB (94%)
Title : Thor Miłość i Grom - Thor Love and Thunder (2022) [1080p.HDQCAM] [AC3.DUB.PL] [MD] [TeaM-EnTeR1973]
Language : English
Default : Yes
Forced : No
Color range : Full

Audio
ID : 2
Format : AC-3
Format/Info : Audio Coding 3
Commercial name : Dolby Digital
Codec ID : A_AC3
Duration : 1 h 50 min
Bit rate mode : Constant
Bit rate : 256 kb/s
Channel(s) : 2 channels
Channel layout : L R
Sampling rate : 48.0 kHz
Frame rate : 31.250 FPS (1536 SPF)
Bit depth : 32 bits
Compression mode : Lossy
Stream size : 201 MiB (6%)
Title : ROSOMAK1-PL/AC3
Language : Polish
Service kind : Complete Main
Default : Yes
Forced : No
Trailer
Ocena użytkowników Help
Działa(0) | Fake(0) | Nie działa(0) | Wymagane hasło(0) | Wirus(0)
Statystyki seed/leech Ostatnio aktualizowane: 2022-10-01 13:58:36 [Aktualizuj]
beenjaay
beenjaay
Napisano: 2022-08-18 20:52
 
jakosc dno
Zoberit
Zoberit
Napisano: 2022-08-18 21:34
 
Zgadza się! Beznadzieja! Chyba tylko jakiś masochista to ściąga i ogląda!!!
Wstawiającemu dzieki za chęci, ale mógłby tym razem darować sobie!!!
seybr1
seybr1
Napisano: 2022-08-18 21:37
 
po to sa wstawione parametry filmu zebys nie hejtował teraz .
popaj01
popaj01
Napisano: 2022-08-18 21:58
 
Wystarczy, że w opisie jest HDQCAM i wiadomo. Chociaz czasami jakość jest niezła.
seweryn33
seweryn33
Napisano: 2022-08-18 22:39
 
warto poczekać na dobrą jakość xd
Oświadczenie: Pliki prezentowane w katalogu nie znajdują się na serwerach wortalu. Użytkownicy zezwolili na ich udostępnienie. Administrator serwisu BitNova.info oraz właściciel serwera nie może ponieść konsekwencji za to co użytkownicy udostępniają i publikują. Pamiętaj! Nie możesz używać tego serwisu do rozpowszechniania lub ściągania materiałów do których nie masz odpowiednich praw lub licencji. Użytkownicy są odpowiedzialni za przestrzeganie tych zasad.

(Disclaimer: None files presented in the directory aren't hosted on servers vortal. Users allow their release. The administrator of site BitNova.info and owner of the server can not be held responsible for what its users post, or any other actions of its users. You may not use this site to distribute or download any material when you do not have the legal rights to do so. It is your own responsibility to adhere to these terms.)
» Zgłaszanie nadużyć / Abuse