Jedyny taki katalog polskich torrentów w sieci. Najlepsze torrenty w jednym miejscu.

Korzystanie ze strony jest darmowe. W przeciwieństwie do konkurencji nie kasujemy kont użytkowników bez ich wyraźnej prośby.


Torrent: Pewnego razu na Dzikim Zachodzie [Once.Upon.A.Time.In.The.West.]1968.PL.DVDRip.XviD-zylasty

Pewnego razu na Dzikim Zachodzie [Once.Upon.A.Time.In.The.West.]1968.PL.DVDRip.XviD-zylasty torrent
Dodał: viola62
06.08.2022 10:15
Kategoria: Inne

Rozmiar: 1.37 GB
Seed'ów: 7
Leecher'ów: 5
Pobrań: 18

Kondycja:
 


» Komentarze [0]
» Obserwuj
» Zgłoś plik
info ///

reżyseria: Sergio Leone
scenariusz: Sergio LeoneSergio Donati
gatunek: Western
produkcja: USAWłochy
premiera: 21 grudnia 1968 (świat)

opis ///


Brett McBain szykuje wspaniałą ucztę ku czci mającej właśnie przyjechać, świeżo poślubionej żonie. Jednakże zdesperowani bandyci zabijają jego oraz trójkę dzieci. Jak się okazuje za tym wszystkim stoi niejaki Frank, jeden z bandziorów związanych z koleją, która zamierzała zbudować tutaj swój trakt. Pomocy wdowie Jill udziela tajemniczy człowiek zwany Harmonijką.

To wielkie epickie dzieło staje w rzędzie pięciu czy sześciu arcydzieł westernu. Sam film jest wielki jak Monument Valley, w pejzażach której go filmowano; jest wspaniały jak wspaniała jest jego obsada; jest twardy i pikantny jak w powszechnym wyobrażeniu powinien być Dziki Zachód.
Monumentalne dzieło według pomysłu Dario Argento, Bernardo Bertolucciego i reżysera Sergio Leone, ze zdjęciami Tonino Delli Colli i muzyką Ennio Morricone, wieńczy dorobek Sergio Leone w dziedzinie spaghetti-westernu. Przez wielu uważane za najdoskonalszy film reżysera, jeśli nie nawet za szczytowe osiągnięcie gatunku, odcisnęło swe piętno na widowisku filmowym lat 70. i znalazło swe miejsce wśród dokonań tworzących klasykę światowego kina.

obsada ///

Henry Fonda - Frank
Claudia Cardinale - Jill McBain
Charles Bronson - Człowiek zwany Harmonica
Jason Robards - Cheyenne
Frank Wolff - Brett McBain
Gabriele Ferzetti - Morton

dane ///


Format : AVI
Format/Info : Audio Video Interleave
File size : 1.37 GiB
Duration : 2h 38mn
Overall bit rate : 1 233 Kbps
Writing application : VirtualDubMod 1.5.10.2 (build 2540/release)
Writing library : VirtualDubMod build 2540/release

Video
ID : 0
Format : MPEG-4 Visual
Format profile : Advanced Simple@L5
Format settings, BVOP : 2
Format settings, QPel : Yes
Format settings, GMC : No warppoints
Format settings, Matrix : Custom
Codec ID : XVID
Codec ID/Hint : XviD
Duration : 2h 38mn
Bit rate : 776 Kbps
Width : 576 pixels
Height : 224 pixels
Display aspect ratio : 2.571
Frame rate : 25.000 fps
Color space : YUV
Chroma subsampling : 4:2:0
Bit depth : 8 bits
Scan type : Progressive
Compression mode : Lossy
Bits/(Pixel*Frame) : 0.240
Stream size : 880 MiB (63%)
Writing library : XviD 1.2.1 (UTC 2008-12-04)

Audio
ID : 1
Format : AC-3
Format/Info : Audio Coding 3
Mode extension : CM (complete main)
Format settings, Endianness : Big
Codec ID : 2000
Duration : 2h 38mn
Bit rate mode : Constant
Bit rate : 448 Kbps
Channel(s) : 6 channels
Channel positions : Front: L C R, Side: L R, LFE
Sampling rate : 48.0 KHz
Compression mode : Lossy
Stream size : 508 MiB (36%)
Alignment : Split accross interleaves
Interleave, duration : 40 ms (1.00 video frame)
Interleave, preload duratio : 500 ms

=========================================================

ps //// wstawka na prośbę /// doneldoom ///
Ocena użytkowników Help
Działa(0) | Fake(0) | Nie działa(0) | Wymagane hasło(0) | Wirus(0)
Statystyki seed/leech Ostatnio aktualizowane: 2022-08-08 01:13:56 [Aktualizuj]
Napisano: 15.08.2022 15:47
 
Nikt jeszcze nie skomentował tego torrenta... Może Ty to zrobisz?
Oświadczenie: Pliki prezentowane w katalogu nie znajdują się na serwerach wortalu. Użytkownicy zezwolili na ich udostępnienie. Administrator serwisu BitNova.info oraz właściciel serwera nie może ponieść konsekwencji za to co użytkownicy udostępniają i publikują. Pamiętaj! Nie możesz używać tego serwisu do rozpowszechniania lub ściągania materiałów do których nie masz odpowiednich praw lub licencji. Użytkownicy są odpowiedzialni za przestrzeganie tych zasad.

(Disclaimer: None files presented in the directory aren't hosted on servers vortal. Users allow their release. The administrator of site BitNova.info and owner of the server can not be held responsible for what its users post, or any other actions of its users. You may not use this site to distribute or download any material when you do not have the legal rights to do so. It is your own responsibility to adhere to these terms.)
» Zgłaszanie nadużyć / Abuse