Jedyny taki katalog polskich torrentów w sieci. Najlepsze torrenty w jednym miejscu.

Korzystanie ze strony jest darmowe. W przeciwieństwie do konkurencji nie kasujemy kont użytkowników bez ich wyraźnej prośby.


Torrent: Minionki: Wejście Gru - Minions: The Rise of Gru 2022 [720p.HDCAM.H265] [Dubbing PL KINO]

Minionki: Wejście Gru - Minions: The Rise of Gru 2022 [720p.HDCAM.H265] [Dubbing PL KINO] torrent
Dodał: Ishimura
15.07.2022 08:30
Kategoria: Animowane

Rozmiar: 2.70 GB
Seed'ów: 33
Leecher'ów: 0
Pobrań: 0

Kondycja:
 


» Komentarze [3]
» Obserwuj
» Zgłoś plik
Info

reżyseria: Kyle Balda
scenariusz: Matthew Fogel
gatunek: Animacja / Komedia / Przygodowy
produkcja: USA
premiera: 1 lipca 2022 (Polska premiera kinowa)

Opis

Na długo przed tym, jak został panem zła, Gru jest zaledwie 12-letnim chłopcem mieszkającym na przedmieściach w latach 70-tych, pracującym w swojej piwnicy nad planem przejęcia władzy nad światem. Długo jednak nie odnosi żadnego znaczącego sukcesu.

Info

Video
ID : 1
Format : HEVC
Format/Info : High Efficiency Video Coding
Format profile : Main 10L4.1High
Codec ID : V_MPEGH/ISO/HEVC
Duration : 1 h 20 min
Bit rate : 4 252 kb/s
Width : 1 280 pixels
Height : 484 pixels
Display aspect ratio : 2.645
Frame rate mode : Constant
Frame rate : 24.000 FPS
Color space : YUV
Chroma subsampling : 4:2:0
Bit depth : 10 bits
Bits/(PixelFrame) : 0.286
Stream size : 2.39 GiB (93)

Audio
ID : 2
Format : AC-3
Format/Info : Audio Coding 3
Commercial name : Dolby Digital
Codec ID : A_AC3
Duration : 1 h 20 min
Bit rate mode : Constant
Bit rate : 320 kb/s
Channel(s) : 2 channels
Channel layout : L R
Sampling rate : 48.0 kHz
Frame rate : 31.250 FPS (1536 SPF)
Compression mode : Lossy
Stream size : 184 MiB (7)
Title : english
Language : English
Service kind : Complete Main
Default : Yes
Forced : No

Text
ID : 3
Format : UTF-8
Codec ID : S_TEXT/UTF8
Codec ID/Info : UTF-8 Plain Text
Duration : 1 h 20 min
Bit rate : 31 b/s
Frame rate : 0.133 FPS
Count of elements : 642
Stream size : 18.4 KiB (0)
Title : english
Language : English
Default : No
Forced : No
Ocena użytkowników Help
Działa(0) | Fake(0) | Nie działa(0) | Wymagane hasło(0) | Wirus(0)
Statystyki seed/leech Ostatnio aktualizowane: 2022-08-17 18:58:50 [Aktualizuj]
lipikp
lipikp
Napisano: 2022-07-15 17:22
 
To nie Dubing PL , tylko English.
bociek100
bociek100
Napisano: 2022-07-24 21:23
 
Jest Dubing pl
kundzia07
kundzia07
Napisano: 2022-08-07 20:36
 
potwierdzam. jest
Oświadczenie: Pliki prezentowane w katalogu nie znajdują się na serwerach wortalu. Użytkownicy zezwolili na ich udostępnienie. Administrator serwisu BitNova.info oraz właściciel serwera nie może ponieść konsekwencji za to co użytkownicy udostępniają i publikują. Pamiętaj! Nie możesz używać tego serwisu do rozpowszechniania lub ściągania materiałów do których nie masz odpowiednich praw lub licencji. Użytkownicy są odpowiedzialni za przestrzeganie tych zasad.

(Disclaimer: None files presented in the directory aren't hosted on servers vortal. Users allow their release. The administrator of site BitNova.info and owner of the server can not be held responsible for what its users post, or any other actions of its users. You may not use this site to distribute or download any material when you do not have the legal rights to do so. It is your own responsibility to adhere to these terms.)
» Zgłaszanie nadużyć / Abuse