Jedyny taki katalog polskich torrentów w sieci. Najlepsze torrenty w jednym miejscu.

Korzystanie ze strony jest darmowe. W przeciwieństwie do konkurencji nie kasujemy kont użytkowników bez ich wyraźnej prośby.


Torrent: Halo 2022 [S01E08] [10Bit HDR] [2160p.WEB-DL.H265.EAC.5.1.Atmos] [Napisy PL]

Halo 2022 [S01E08] [10Bit HDR] [2160p.WEB-DL.H265.EAC.5.1.Atmos] [Napisy PL] torrent
Dodał: Ishimura
20.05.2022 04:10
Kategoria: Seriale obyczajowe

Rozmiar: 4.79 GB
Seed'ów: 2
Leecher'ów: 2
Pobrań: 103

Kondycja:
 


» Komentarze [0]
» Obserwuj
» Zgłoś plik
Info
Produkcja: USA
Gatunek: Akcja, Sci-Fi
Premiera: 24 marca 2022 (Świat)
Muzyka: Brak danych
Zdjęcia: Brak danych
Opis
Halo to serial na podstawie popularnej serii pierwszoosobowych strzelanek, którą zapoczątkowano w 2001 roku. Historia opowiada o
walce ludzkości z kosmicznym przymierzem Covenant, a centralną postacią jest Master Chief, superżołnierz w charakterystycznym
zielonym pancerzu i hełmie.

Obsada
Pablo Schreiber .... Master Chief
Yerin Ha .... Quan Ah
Natascha McElhone .... Dr Catherine Halsey
Bokeem Woodbine .... Soren-066
Shabana Azmi .... Admirał Margaret Parangosk
Bentley Kalu .... Spartan Vannak-13
Natasha Culzac .... Spartan Riz-028
Kate Kennedy .... Spartan Kai-125

Dane Techniczne
Video
Format : HEVC
Format/Info : High Efficiency Video Coding
Format profile : Main 10L5Main
HDR format : SMPTE ST 2094 App 4, Version 1, HDR10+ Profile B compatible
Codec ID : V_MPEGH/ISO/HEVC
Duration : 47 min 57 s
Bit rate : 13.5 Mb/s
Width : 3 840 pixels
Height : 2 160 pixels
Display aspect ratio : 16:9
Frame rate mode : Constant
Frame rate : 23.976 (24000/1001) FPS
Color space : YUV
Chroma subsampling : 4:2:0 (Type 2)
Bit depth : 10 bits
Bits/(PixelFrame) : 0.068
Stream size : 4.53 GiB (95)
Default : Yes
Forced : No
Color range : Limited
Color primaries : BT.2020
Transfer characteristics : PQ
Matrix coefficients : BT.2020 non-constant
Mastering display color primaries : BT.2020
Mastering display luminance : min: 0.0001 cd/m2, max: 1000 cd/m2

Audio
Format : E-AC-3 JOC
Format/Info : Enhanced AC-3 with Joint Object Coding
Commercial name : Dolby Digital Plus with Dolby Atmos
Codec ID : A_EAC3
Duration : 47 min 57 s
Bit rate mode : Constant
Bit rate : 768 kb/s
Channel(s) : 6 channels
Channel layout : L R C LFE Ls Rs
Sampling rate : 48.0 kHz
Frame rate : 31.250 FPS (1536 SPF)
Compression mode : Lossy
Stream size : 263 MiB (5)
Title : Original
Language : English
Service kind : Complete Main
Default : Yes
Forced : No
Complexity index : 16
Number of dynamic objects : 15
Bed channel count : 1 channel
Bed channel configuration : LFE

Text
Format : UTF-8
Codec ID : S_TEXT/UTF8
Codec ID/Info : UTF-8 Plain Text
Duration : 45 min 54 s
Bit rate : 50 b/s
Count of elements : 500
Stream size : 16.8 KiB (0)
Title : Napisy PL
Language : Polish
Default : Yes
Forced : No
Ocena użytkowników Help
Działa(0) | Fake(0) | Nie działa(0) | Wymagane hasło(0) | Wirus(0)
Statystyki seed/leech Ostatnio aktualizowane: 2022-05-28 22:20:40 [Aktualizuj]
Napisano: 05.07.2022 23:10
 
Nikt jeszcze nie skomentował tego torrenta... Może Ty to zrobisz?
Oświadczenie: Pliki prezentowane w katalogu nie znajdują się na serwerach wortalu. Użytkownicy zezwolili na ich udostępnienie. Administrator serwisu BitNova.info oraz właściciel serwera nie może ponieść konsekwencji za to co użytkownicy udostępniają i publikują. Pamiętaj! Nie możesz używać tego serwisu do rozpowszechniania lub ściągania materiałów do których nie masz odpowiednich praw lub licencji. Użytkownicy są odpowiedzialni za przestrzeganie tych zasad.

(Disclaimer: None files presented in the directory aren't hosted on servers vortal. Users allow their release. The administrator of site BitNova.info and owner of the server can not be held responsible for what its users post, or any other actions of its users. You may not use this site to distribute or download any material when you do not have the legal rights to do so. It is your own responsibility to adhere to these terms.)
» Zgłaszanie nadużyć / Abuse