Jedyny taki katalog polskich torrentów w sieci. Najlepsze torrenty w jednym miejscu.

Korzystanie ze strony jest darmowe. W przeciwieństwie do konkurencji nie kasujemy kont użytkowników bez ich wyraźnej prośby.


Torrent: Moonfall. (2022) (1080p.BRRip.10bit.h264.sr) [LEKTOR]

Moonfall. (2022) (1080p.BRRip.10bit.h264.sr) [LEKTOR] torrent
Dodał: Draxoo7
19.05.2022 19:40
Kategoria: Fantasy

Rozmiar: 1.46 GB
Seed'ów: 4
Leecher'ów: 0
Pobrań: 10

Kondycja:
 


» Komentarze [0]
» Obserwuj
» Zgłoś plik
Produkcja: Chiny, Kanada, USA
Gatunek: Sci-Fi, Katastroficzny
Premiera: 2 lutego 2022 (świat)
Reżyseria: Roland Emmerich
Scenariusz: Roland Emmerich, Spenser Cohen


Na skutek serii niewyjaśnionych zjawisk Księżyc wypada ze swojej orbity i obiera kurs kolizyjny z Ziemią. Jeśli dojdzie do zderzenia, nasza planeta ulegnie zagładzie. Była astronautka Jo Fowler (Halle Berry) jest przekonana, że przyczyną tego zjawiska jest działanie pewnej tajemniczej siły o niejasnym pochodzeniu. Większości naukowców i polityków ta teoria wydaje się szalona, ale Fowler wierzy, że jest wciąż szansa, by ocalić Ziemię. Wraz z jedynymi ludźmi, którzy wierzą w jej koncepcję: dawnym astronautą Brianem Harperem (Patrick Wilson) oraz niejakim Housemanem (John Bradley), specem od teorii spiskowych, Fowler przygotowuje misję ostatniej szansy. Kładąc na szali całą swoją wiedzę, doświadczenie i życie, wyruszają w kosmiczną podróż, podczas której odkryją, że Księżyc nie jest tym, czym nam się zawsze wydawał.


★ Halle Berry .... Jocinda Fowler
★ Patrick Wilson .... Brian Harper
★ John Bradley .... KC Houseman
★ Charlie Plummer .... Sonny Harper
★ Michael Peña .... Tom Lopez
★ Carolina Bartczak .... Brenda Lopez
★ Donald Sutherland .... Holdenfield
★ Zayn Maloney .... Jimmy


Video
ID : 1
Format : AVC
Format/Info : Advanced Video Codec
Format profile : High 10@L4
Format settings : CABAC / 4 Ref Frames
Format settings, CABAC : Yes
Format settings, Reference : 4 frames
Codec ID : V_MPEG4/ISO/AVC
Duration : 2 h 10 min
Bit rate : 1 444 kb/s
Width : 1 920 pixels
Height : 804 pixels
Display aspect ratio : 2.40:1
Frame rate mode : Constant
Frame rate : 23.976 (24000/1001) FPS
Color space : YUV
Chroma subsampling : 4:2:0
Bit depth : 10 bits
Scan type : Progressive
Bits/(Pixel*Frame) : 0.039
Stream size : 1.31 GiB (90%)
Title : VIDEO
Writing library : x264 core 164 r3065 ae03d92
Encoding settings : cabac=1 / ref=2 / deblock=1:0:0 / analyse=0x3:0x113 / me=hex / subme=6 / psy=1 / psy_rd=1.00:0.00 / mixed_ref=1 / me_range=16 / chroma_me=1 / trellis=1 / 8x8dct=1 / cqm=0 / deadzone=21,11 / fast_pskip=1 / chroma_qp_offset=-2 / threads=6 / lookahead_threads=1 / sliced_threads=0 / nr=0 / decimate=1 / interlaced=0 / bluray_compat=0 / constrained_intra=0 / bframes=3 / b_pyramid=2 / b_adapt=1 / b_bias=0 / direct=1 / weightb=1 / open_gop=0 / weightp=1 / keyint=240 / keyint_min=24 / scenecut=40 / intra_refresh=0 / rc_lookahead=30 / rc=crf / mbtree=1 / crf=25.0 / qcomp=0.60 / qpmin=0 / qpmax=81 / qpstep=4 / ip_ratio=1.40 / aq=1:1.00
Default : Yes
Forced : No
Color range : Limited
Color primaries : BT.709
Transfer characteristics : BT.709
Matrix coefficients : BT.709

Audio
ID : 2
Format : AAC LC
Format/Info : Advanced Audio Codec Low Complexity
Codec ID : A_AAC-2
Duration : 2 h 10 min
Bit rate : 161 kb/s
Channel(s) : 2 channels
Channel layout : L R
Sampling rate : 48.0 kHz
Frame rate : 46.875 FPS (1024 SPF)
Compression mode : Lossy
Delay relative to video : -21 ms
Stream size : 150 MiB (10%)
Title : Lektor
Language : Polish
Default : Yes
Forced : No
Ocena użytkowników Help
Działa(0) | Fake(0) | Nie działa(0) | Wymagane hasło(0) | Wirus(0)
Statystyki seed/leech Ostatnio aktualizowane: 2022-06-30 22:33:18 [Aktualizuj]
Napisano: 06.07.2022 00:31
 
Nikt jeszcze nie skomentował tego torrenta... Może Ty to zrobisz?
Oświadczenie: Pliki prezentowane w katalogu nie znajdują się na serwerach wortalu. Użytkownicy zezwolili na ich udostępnienie. Administrator serwisu BitNova.info oraz właściciel serwera nie może ponieść konsekwencji za to co użytkownicy udostępniają i publikują. Pamiętaj! Nie możesz używać tego serwisu do rozpowszechniania lub ściągania materiałów do których nie masz odpowiednich praw lub licencji. Użytkownicy są odpowiedzialni za przestrzeganie tych zasad.

(Disclaimer: None files presented in the directory aren't hosted on servers vortal. Users allow their release. The administrator of site BitNova.info and owner of the server can not be held responsible for what its users post, or any other actions of its users. You may not use this site to distribute or download any material when you do not have the legal rights to do so. It is your own responsibility to adhere to these terms.)
» Zgłaszanie nadużyć / Abuse