Jedyny taki katalog polskich torrentów w sieci. Najlepsze torrenty w jednym miejscu.

Korzystanie ze strony jest darmowe. W przeciwieństwie do konkurencji nie kasujemy kont użytkowników bez ich wyraźnej prośby.


Torrent: Morbius [2022] WEBDL 720P [ENG]

Morbius [2022] WEBDL 720P [ENG] torrent
Dodał: PROAC
14.05.2022 23:14
Kategoria: Fantasy

Rozmiar: 1.44 GB
Seed'ów: (?)
Leecher'ów: (?)
Pobrań: (?)

Kondycja:
 


» Komentarze [0]
» Obserwuj
» Zgłoś plik
Morbius [2022] WEBDL 720P [ENG]




Kraj: USA
Gatunek: Akcja, Przygoda, Przerażenie, Fantazja
Rok wydania: 2022
Czas trwania: 01:43:26


Napisy: rosyjskie, angielskie
Oryginalna ścieżka dźwiękowa: angielski

Reżyseria: Daniel Espinosa

Obsada:
Jared Leto, Michael Keaton, Adria Arjona, Jared Harris, Matt Smith, Tyrese Gibson, Corey Johnson, Archie Reno, Charlie Shotwell, Al Madrigal

Opis:
Michael Morbius od dzieciństwa cierpi na rzadką chorobę krwi i całe swoje dorosłe życie poświęcił na znalezienie lekarstwa. W pewnym momencie Michael widzi we krwi nietoperzy możliwe zbawienie i decyduje się na ryzykowny eksperyment. Doświadczenie powoduje nieoczekiwaną reakcję: nawiązując komunikację z chorymi komórkami, zmienia ciało Morbiusa, zamieniając go w krwiożerczego potwora.


Dane techniczne:

Format : AVI
Format/Info : Audio Video Interleave
File size : 1.44 GiB
Duration : 1 h 43 min
Overall bit rate : 1 996 kb/s

Video
ID : 0
Format : MPEG-4 Visual
Format profile : Advanced Simple@L4
Format settings : BVOP2
Format settings, BVOP : 2
Format settings, QPel : No
Format settings, GMC : No warppoints
Format settings, Matrix : Default (H.263)
Codec ID : XVID
Codec ID/Hint : XviD
Duration : 1 h 43 min
Bit rate : 1 599 kb/s
Width : 720 pixels
Height : 304 pixels
Display aspect ratio : 2.35:1
Frame rate : 29.970 (30000/1001) FPS
Color space : YUV
Chroma subsampling : 4:2:0
Bit depth : 8 bits
Scan type : Progressive
Compression mode : Lossy
Bits/(Pixel*Frame) : 0.244
Stream size : 1.16 GiB (80%)
Writing library : XviD 67

Audio
ID : 1
Format : AC-3
Format/Info : Audio Coding 3
Commercial name : Dolby Digital
Codec ID : 2000
Duration : 1 h 43 min
Bit rate mode : Constant
Bit rate : 384 kb/s
Channel(s) : 2 channels
Channel layout : L R
Sampling rate : 48.0 kHz
Frame rate : 31.250 FPS (1536 SPF)
Bit depth : 16 bits
Compression mode : Lossy
Stream size : 284 MiB (19%)
Alignment : Aligned on interleaves
Interleave, duration : 32 ms (0.96 video frame)
Service kind : Complete Main







Trailer
Ocena użytkowników Help
Działa(0) | Fake(0) | Nie działa(0) | Wymagane hasło(0) | Wirus(0)
Statystyki seed/leech Ostatnio aktualizowane: 2022-05-16 12:01:44 [Aktualizuj]
Tagi morbius
Napisano: 26.05.2022 19:12
 
Nikt jeszcze nie skomentował tego torrenta... Może Ty to zrobisz?
Oświadczenie: Pliki prezentowane w katalogu nie znajdują się na serwerach wortalu. Użytkownicy zezwolili na ich udostępnienie. Administrator serwisu BitNova.info oraz właściciel serwera nie może ponieść konsekwencji za to co użytkownicy udostępniają i publikują. Pamiętaj! Nie możesz używać tego serwisu do rozpowszechniania lub ściągania materiałów do których nie masz odpowiednich praw lub licencji. Użytkownicy są odpowiedzialni za przestrzeganie tych zasad.

(Disclaimer: None files presented in the directory aren't hosted on servers vortal. Users allow their release. The administrator of site BitNova.info and owner of the server can not be held responsible for what its users post, or any other actions of its users. You may not use this site to distribute or download any material when you do not have the legal rights to do so. It is your own responsibility to adhere to these terms.)
» Zgłaszanie nadużyć / Abuse