Jedyny taki katalog polskich torrentów w sieci. Najlepsze torrenty w jednym miejscu.

Korzystanie ze strony jest darmowe. W przeciwieństwie do konkurencji nie kasujemy kont użytkowników bez ich wyraźnej prośby.


Torrent: Sing 2 2021 [10Bit HDR] [MULTi.2160p.WEB-DL.H265.AAC.2.0] [Dubbing PL & Napisy PL]

Sing 2 2021 [10Bit HDR] [MULTi.2160p.WEB-DL.H265.AAC.2.0] [Dubbing PL & Napisy PL] torrent
Dodał: Ishimura
06.05.2022 08:16
Kategoria: Animowane

Rozmiar: 9.38 GB
Seed'ów: 2
Leecher'ów: 0
Pobrań: 205

Kondycja:
 


» Komentarze [3]
» Obserwuj
» Zgłoś plik
Info
Produkcja: USA
Gatunek: Animacja, Komedia, Musical
Premiera: 21 stycznia 2022 (Polska)
Reżyseria: Garth Jennings
Scenariusz: Garth Jennings

Opis
Buster (Matthew McConaughey) i jego ekipa zmienili teatr New Moon we wspaniałe miejsce, ale Buster chciałby, aby nowy spektakl
zadebiutował na scenie tearu Crystal w olśniewającym mieście Redshore. Ale bez koneksji, Buster i jego ekipa - w tym świnka
Rosita (Reese Witherspoon), jeżozwierzyca Ash (Scarlett Johansson), goryl Johnny (Taron Egerton) i nieśmiała słonica Meena (Tori
Kelly) i oczywiście niezwyły Gunter (Nick Kroll) muszą zwrócić uwagę światowej sławy agencji - Crystal Entertainment, prowadzonej
przez bezwzględnego wilka - Jimmy?ego Crystala (Bobby Cannavale). W desperackiej próbie zwrócenia uwagi Pana Crystala, Gunter
wpada na pomysł i obiecuje, że w ich nowym spektaklu wystąpi legenda rocka - lew, Clay (Bono). Oczywiście pomysł podoba się
Busterowi. Problem w tym, że Clay po stracie żony od ponad dekady zamknął się z dala od świata i nikt go nie widział. Buster
wyrusza na poszukiwanie lwa i przekonania go do powrotu na scenę. Marzenie Bustera o wielkim sukcesie staje się jednocześnie
emocjonalnym przypomnieniem mocy muzyki, która leczy nawet najbardziej złamane serce.

Obsada
Matthew McConaughey .... Buster Moon (głos)
Reese Witherspoon .... Rosita (głos)
Scarlett Johansson .... Ash (głos)
Taron Egerton .... Johnny (głos)
Tori Kelly .... Meena (głos)
Nick Kroll .... Gunter (głos)
Bobby Cannavale .... Jimmy Crystal (głos)
Halsey .... Porsha Crystal (głos)

Dane Techniczne
Video
Format : HEVC
Format/Info : High Efficiency Video Coding
Format profile : Main 10L5Main
HDR format : SMPTE ST 2086, HDR10 compatible
Codec ID : V_MPEGH/ISO/HEVC
Duration : 1 h 49 min
Bit rate : 11.5 Mb/s
Width : 3 840 pixels
Height : 2 072 pixels
Display aspect ratio : 1.85:1
Frame rate mode : Variable
Frame rate : 23.976 (24000/1001) FPS
Color space : YUV
Chroma subsampling : 4:2:0 (Type 2)
Bit depth : 10 bits
Bits/(PixelFrame) : 0.060
Stream size : 8.79 GiB (94)
Default : Yes
Forced : No
Color range : Limited
Color primaries : BT.2020
Transfer characteristics : PQ
Matrix coefficients : BT.2020 non-constant
Mastering display color primaries : BT.2020
Mastering display luminance : min: 0.0050 cd/m2, max: 1000 cd/m2
Maximum Content Light Level : 1643 cd/m2
Maximum Frame-Average Light Level : 942 cd/m2

Audio #1
Format : AAC LC
Format/Info : Advanced Audio Codec Low Complexity
Codec ID : A_AAC-2
Duration : 1 h 49 min
Bit rate : 129 kb/s
Channel(s) : 2 channels
Channel layout : L R
Sampling rate : 48.0 kHz
Frame rate : 46.875 FPS (1024 SPF)
Compression mode : Lossy
Stream size : 101 MiB (1)
Title : Dubbing PL
Language : Polish
Default : Yes
Forced : No

Audio #2
Format : AC-3
Format/Info : Audio Coding 3
Commercial name : Dolby Digital
Codec ID : A_AC3
Duration : 1 h 49 min
Bit rate mode : Constant
Bit rate : 640 kb/s
Channel(s) : 6 channels
Channel layout : L R C LFE Ls Rs
Sampling rate : 48.0 kHz
Frame rate : 31.250 FPS (1536 SPF)
Compression mode : Lossy
Stream size : 503 MiB (5)
Title : Original
Language : English
Service kind : Complete Main
Default : No
Forced : No

Text
Format : UTF-8
Codec ID : S_TEXT/UTF8
Codec ID/Info : UTF-8 Plain Text
Duration : 1 h 48 min
Bit rate : 47 b/s
Count of elements : 1449
Stream size : 37.3 KiB (0)
Title : Napisy PL
Language : Polish
Default : No
Forced : No
Ocena użytkowników Help
Działa(0) | Fake(0) | Nie działa(0) | Wymagane hasło(0) | Wirus(0)
Statystyki seed/leech Ostatnio aktualizowane: 2022-05-28 07:07:33 [Aktualizuj]
nero084
nero084
Napisano: 2022-05-08 15:32
 
Ściąga 97% i stoi w miejscu :(
CyboRKg
CyboRKg
Napisano: 2022-05-08 16:32
 
Sprobuj dodac wiecej trackerow w swoim kliencie torrent.
nero084
nero084
Napisano: 2022-05-08 20:06
 
To pierwsze co zrobiłem , odświeżam track listę z 10 razy ,sam plik próbowałem ścianach i Cometem i qtorrentem i fluidem ,zawsze zawiesza się na 97%
Oświadczenie: Pliki prezentowane w katalogu nie znajdują się na serwerach wortalu. Użytkownicy zezwolili na ich udostępnienie. Administrator serwisu BitNova.info oraz właściciel serwera nie może ponieść konsekwencji za to co użytkownicy udostępniają i publikują. Pamiętaj! Nie możesz używać tego serwisu do rozpowszechniania lub ściągania materiałów do których nie masz odpowiednich praw lub licencji. Użytkownicy są odpowiedzialni za przestrzeganie tych zasad.

(Disclaimer: None files presented in the directory aren't hosted on servers vortal. Users allow their release. The administrator of site BitNova.info and owner of the server can not be held responsible for what its users post, or any other actions of its users. You may not use this site to distribute or download any material when you do not have the legal rights to do so. It is your own responsibility to adhere to these terms.)
» Zgłaszanie nadużyć / Abuse