Jedyny taki katalog polskich torrentów w sieci. Najlepsze torrenty w jednym miejscu.

Korzystanie ze strony jest darmowe. W przeciwieństwie do konkurencji nie kasujemy kont użytkowników bez ich wyraźnej prośby.


Torrent: Baki Hanma - Hanma Baki: Son of Ogre (2021) [SEZON 1] [JAPANESE] [MULTi] [1080p.NF.WEBRip.DDP5.1.x264-AGLET] [Napisy PL]

Baki Hanma - Hanma Baki: Son of Ogre (2021) [SEZON 1] [JAPANESE] [MULTi] [1080p.NF.WEBRip.DDP5.1.x264-AGLET] [Napisy PL] torrent
Dodał: Ishimura
12.01.2022 08:14
Kategoria: Anime

Rozmiar: 10.05 GB
Seed'ów: 6
Leecher'ów: 1
Pobrań: 86

Kondycja:
 


» Komentarze [0]
» Obserwuj
» Zgłoś plik
Info
tytuł polski:Baki Hanma
tytuł angielski: Hanma Baki: Son of Ogre
produkcja: Japonia
gatunek: Animacja, Akcja i Przygoda
reżyseria:Toshiki Hirano, Tatsuo Noguchi, Yasuyuki Urakami
muzyka: Kenji Fujisawa
zdjęcia: Tatsuo Noguchi
czas trwania odcinka: 24 min.
premiera: 30 Września 2021 (Netflix)
lata emisji: 2021
sezon: 1
liczba odcinków: 12

Opis
Baki stoczył już mnóstwo ciężkich pojedynków z przepotężnymi wrogami. Teraz nadchodzi dla niego czas, aby stanąć naprzeciw swojego ojca Yujiro Hanmy, o którym mówi się, że jest najsilniejszą istotą na Ziemi?. Jako sparingpartnera, który ma pomóc mu przygotować się do tego starcia, Baki wybiera sobie Biscuita Olivę. Oliva przebywa obecnie w więzieniu zwanym Czarnym Pentagonem?, w którym osadzeni są wyłącznie najgroźniejsi przestępcy. Aby stoczyć z nim walkę, Baki daje się wsadzić do Czarnego Pentagonu. Okazuje się jednak, że oprócz jego sparingpartnera czekają tam też na niego inni przerażający wojownicy.

Obsada
Nobunaga Shimazaki ... Baki Hanma (voice)
Akio Otsuka ... Yujiro Hanma (voice)
Hochu Otsuka ... Biscuit Oliva (voice)
Kenji Nojima ... Jun Guevara (voice)
Mami Koyama ... Maria (voice)
Takaya Hashi ... Gerry Strydum (voice)

Screenshot / Wideo

https://www.youtube.com/watch?v=uJdi2OZ4qJE

User image

Dane Techniczne
Video
ID : 1
Format : AVC
Format/Info : Advanced Video Codec
Format profile : MainL4
Format settings : CABAC / 3 Ref Frames
Format settings, CABAC : Yes
Format settings, Reference frames : 3 frames
Codec ID : V_MPEG4/ISO/AVC
Duration : 24 min 37 s
Bit rate mode : Variable
Bit rate : 4 377 kb/s
Nominal bit rate : 7 500 kb/s
Maximum bit rate : 11.2 Mb/s
Width : 1 920 pixels
Height : 1 080 pixels
Display aspect ratio : 16:9
Frame rate mode : Constant
Frame rate : 23.976 (24000/1001) FPS
Color space : YUV
Chroma subsampling : 4:2:0
Bit depth : 8 bits
Scan type : Progressive
Bits/(PixelFrame) : 0.088
Stream size : 771 MiB (77)
Writing library : x264 core 148 r2724 dbe0335
Encoding settings : cabac=1 / ref=3 / deblock=1:0:0 / analyse=0x1:0x111 / me=umh / subme=10 / psy=1 / psy_rd=1.00:0.00 / mixed_ref=1 / me_range=24 / chroma_me=1 / trellis=2 / 8x8dct=0 / cqm=0 / deadzone=21,11 / fast_pskip=1 / chroma_qp_offset=-2 / threads=8 / lookahead_threads=1 / sliced_threads=0 / nr=0 / decimate=1 / interlaced=0 / bluray_compat=0 / stitchable=1 / constrained_intra=0 / bframes=2 / b_pyramid=0 / b_adapt=2 / b_bias=0 / direct=3 / weightb=1 / open_gop=0 / weightp=2 / keyint=250 / keyint_min=23 / scenecut=0 / intra_refresh=0 / rc_lookahead=48 / rc=2pass / mbtree=1 / bitrate=7500 / ratetol=1.0 / qcomp=0.50 / qpmin=6 / qpmax=51 / qpstep=4 / cplxblur=20.0 / qblur=0.5 / vbv_maxrate=11250 / vbv_bufsize=15000 / nal_hrd=vbr / filler=0 / ip_ratio=1.40 / aq=1:1.00
Language : Japanese
Default : Yes
Forced : No

Audio #1
ID : 2
Format : E-AC-3
Format/Info : Enhanced AC-3
Commercial name : Dolby Digital Plus
Codec ID : A_EAC3
Duration : 24 min 38 s
Bit rate mode : Constant
Bit rate : 640 kb/s
Channel(s) : 6 channels
Channel layout : L R C LFE Ls Rs
Sampling rate : 48.0 kHz
Frame rate : 31.250 FPS (1536 SPF)
Compression mode : Lossy
Stream size : 113 MiB (11)
Language : Japanese
Service kind : Complete Main
Default : Yes
Forced : No

Audio #2
ID : 3
Format : E-AC-3
Format/Info : Enhanced AC-3
Commercial name : Dolby Digital Plus
Codec ID : A_EAC3
Duration : 24 min 38 s
Bit rate mode : Constant
Bit rate : 640 kb/s
Channel(s) : 6 channels
Channel layout : L R C LFE Ls Rs
Sampling rate : 48.0 kHz
Frame rate : 31.250 FPS (1536 SPF)
Compression mode : Lossy
Stream size : 113 MiB (11)
Language : English
Service kind : Complete Main
Default : No
Forced : No

Text #1
ID : 4
Format : UTF-8
Codec ID : S_TEXT/UTF8
Codec ID/Info : UTF-8 Plain Text
Duration : 4 s 4 ms
Bit rate : 93 b/s
Count of elements : 1
Stream size : 47.0 Bytes (0)
Title : Forced
Language : Japanese
Default : Yes
Forced : Yes

Text #2
ID : 5
Format : UTF-8
Codec ID : S_TEXT/UTF8
Codec ID/Info : UTF-8 Plain Text
Duration : 3 s 336 ms
Bit rate : 91 b/s
Count of elements : 1
Stream size : 38.0 Bytes (0)
Title : Forced
Language : English
Default : No
Forced : No

Text #3
ID : 6
Format : UTF-8
Codec ID : S_TEXT/UTF8
Codec ID/Info : UTF-8 Plain Text
Duration : 23 min 45 s
Bit rate : 74 b/s
Count of elements : 339
Stream size : 12.9 KiB (0)
Title : SDH
Language : Japanese
Default : No
Forced : No

Text #4
ID : 7
Format : UTF-8
Codec ID : S_TEXT/UTF8
Codec ID/Info : UTF-8 Plain Text
Duration : 23 min 45 s
Bit rate : 72 b/s
Count of elements : 262
Stream size : 12.6 KiB (0)
Language : Arabic
Default : No
Forced : No

Text #5
ID : 8
Format : UTF-8
Codec ID : S_TEXT/UTF8
Codec ID/Info : UTF-8 Plain Text
Duration : 23 min 45 s
Bit rate : 44 b/s
Count of elements : 227
Stream size : 7.75 KiB (0)
Language : Czech
Default : No
Forced : No

Text #6
ID : 9
Format : UTF-8
Codec ID : S_TEXT/UTF8
Codec ID/Info : UTF-8 Plain Text
Duration : 23 min 45 s
Bit rate : 42 b/s
Count of elements : 263
Stream size : 7.36 KiB (0)
Language : Danish
Default : No
Forced : No

Text #7
ID : 10
Format : UTF-8
Codec ID : S_TEXT/UTF8
Codec ID/Info : UTF-8 Plain Text
Duration : 23 min 45 s
Bit rate : 45 b/s
Count of elements : 250
Stream size : 7.93 KiB (0)
Language : German
Default : No
Forced : No

Text #8
ID : 11
Format : UTF-8
Codec ID : S_TEXT/UTF8
Codec ID/Info : UTF-8 Plain Text
Duration : 23 min 45 s
Bit rate : 74 b/s
Count of elements : 263
Stream size : 12.9 KiB (0)
Language : Greek
Default : No
Forced : No

Text #9
ID : 12
Format : UTF-8
Codec ID : S_TEXT/UTF8
Codec ID/Info : UTF-8 Plain Text
Duration : 22 min 5 s
Bit rate : 46 b/s
Count of elements : 262
Stream size : 7.60 KiB (0)
Language : English
Default : No
Forced : No

Text #10
ID : 13
Format : UTF-8
Codec ID : S_TEXT/UTF8
Codec ID/Info : UTF-8 Plain Text
Duration : 23 min 45 s
Bit rate : 42 b/s
Count of elements : 259
Stream size : 7.47 KiB (0)
Language : Spanish
Default : No
Forced : No

Text #11
ID : 14
Format : UTF-8
Codec ID : S_TEXT/UTF8
Codec ID/Info : UTF-8 Plain Text
Duration : 23 min 45 s
Bit rate : 41 b/s
Count of elements : 252
Stream size : 7.19 KiB (0)
Title : European
Language : Spanish
Default : No
Forced : No

Text #12
ID : 15
Format : UTF-8
Codec ID : S_TEXT/UTF8
Codec ID/Info : UTF-8 Plain Text
Duration : 23 min 45 s
Bit rate : 37 b/s
Count of elements : 229
Stream size : 6.47 KiB (0)
Language : Finnish
Default : No
Forced : No

Text #13
ID : 16
Format : UTF-8
Codec ID : S_TEXT/UTF8
Codec ID/Info : UTF-8 Plain Text
Duration : 23 min 45 s
Bit rate : 47 b/s
Count of elements : 261
Stream size : 8.22 KiB (0)
Language : French
Default : No
Forced : No

Text #14
ID : 17
Format : UTF-8
Codec ID : S_TEXT/UTF8
Codec ID/Info : UTF-8 Plain Text
Duration : 23 min 45 s
Bit rate : 67 b/s
Count of elements : 262
Stream size : 11.8 KiB (0)
Language : Hebrew
Default : No
Forced : No

Text #15
ID : 18
Format : UTF-8
Codec ID : S_TEXT/UTF8
Codec ID/Info : UTF-8 Plain Text
Duration : 23 min 45 s
Bit rate : 40 b/s
Count of elements : 260
Stream size : 7.11 KiB (0)
Language : Croatian
Default : No
Forced : No

Text #16
ID : 19
Format : UTF-8
Codec ID : S_TEXT/UTF8
Codec ID/Info : UTF-8 Plain Text
Duration : 23 min 45 s
Bit rate : 41 b/s
Count of elements : 246
Stream size : 7.22 KiB (0)
Language : Hungarian
Default : No
Forced : No

Text #17
ID : 20
Format : UTF-8
Codec ID : S_TEXT/UTF8
Codec ID/Info : UTF-8 Plain Text
Duration : 23 min 45 s
Bit rate : 42 b/s
Count of elements : 263
Stream size : 7.38 KiB (0)
Language : Indonesian
Default : No
Forced : No

Text #18
ID : 21
Format : UTF-8
Codec ID : S_TEXT/UTF8
Codec ID/Info : UTF-8 Plain Text
Duration : 23 min 45 s
Bit rate : 44 b/s
Count of elements : 263
Stream size : 7.82 KiB (0)
Language : Italian
Default : No
Forced : No

Text #19
ID : 22
Format : UTF-8
Codec ID : S_TEXT/UTF8
Codec ID/Info : UTF-8 Plain Text
Duration : 23 min 45 s
Bit rate : 53 b/s
Count of elements : 270
Stream size : 9.30 KiB (0)
Language : Korean
Default : No
Forced : No

Text #20
ID : 23
Format : UTF-8
Codec ID : S_TEXT/UTF8
Codec ID/Info : UTF-8 Plain Text
Duration : 23 min 45 s
Bit rate : 46 b/s
Count of elements : 262
Stream size : 8.05 KiB (0)
Language : Malay
Default : No
Forced : No

Text #21
ID : 24
Format : UTF-8
Codec ID : S_TEXT/UTF8
Codec ID/Info : UTF-8 Plain Text
Duration : 23 min 45 s
Bit rate : 43 b/s
Count of elements : 252
Stream size : 7.56 KiB (0)
Language : Norwegian Bokmal
Default : No
Forced : No

Text #22
ID : 25
Format : UTF-8
Codec ID : S_TEXT/UTF8
Codec ID/Info : UTF-8 Plain Text
Duration : 23 min 45 s
Bit rate : 44 b/s
Count of elements : 233
Stream size : 7.73 KiB (0)
Language : Dutch
Default : No
Forced : No

Text #23
ID : 26
Format : UTF-8
Codec ID : S_TEXT/UTF8
Codec ID/Info : UTF-8 Plain Text
Duration : 23 min 45 s
Bit rate : 42 b/s
Count of elements : 259
Stream size : 7.46 KiB (0)
Language : Polish
Default : No
Forced : No

Text #24
ID : 27
Format : UTF-8
Codec ID : S_TEXT/UTF8
Codec ID/Info : UTF-8 Plain Text
Duration : 23 min 45 s
Bit rate : 39 b/s
Count of elements : 261
Stream size : 6.84 KiB (0)
Language : Portuguese
Default : No
Forced : No

Text #25
ID : 28
Format : UTF-8
Codec ID : S_TEXT/UTF8
Codec ID/Info : UTF-8 Plain Text
Duration : 22 min 18 s
Bit rate : 47 b/s
Count of elements : 257
Stream size : 7.72 KiB (0)
Title : Brazilian
Language : Portuguese
Default : No
Forced : No

Text #26
ID : 29
Format : UTF-8
Codec ID : S_TEXT/UTF8
Codec ID/Info : UTF-8 Plain Text
Duration : 23 min 45 s
Bit rate : 44 b/s
Count of elements : 260
Stream size : 7.80 KiB (0)
Language : Romanian
Default : No
Forced : No

Text #27
ID : 30
Format : UTF-8
Codec ID : S_TEXT/UTF8
Codec ID/Info : UTF-8 Plain Text
Duration : 23 min 45 s
Bit rate : 72 b/s
Count of elements : 265
Stream size : 12.6 KiB (0)
Language : Russian
Default : No
Forced : No

Text #28
ID : 31
Format : UTF-8
Codec ID : S_TEXT/UTF8
Codec ID/Info : UTF-8 Plain Text
Duration : 23 min 45 s
Bit rate : 44 b/s
Count of elements : 226
Stream size : 7.73 KiB (0)
Language : Swedish
Default : No
Forced : No

Text #29
ID : 32
Format : UTF-8
Codec ID : S_TEXT/UTF8
Codec ID/Info : UTF-8 Plain Text
Duration : 23 min 45 s
Bit rate : 105 b/s
Count of elements : 264
Stream size : 18.3 KiB (0)
Language : Thai
Default : No
Forced : No

Text #30
ID : 33
Format : UTF-8
Codec ID : S_TEXT/UTF8
Codec ID/Info : UTF-8 Plain Text
Duration : 23 min 45 s
Bit rate : 43 b/s
Count of elements : 255
Stream size : 7.58 KiB (0)
Language : Turkish
Default : No
Forced : No

Text #31
ID : 34
Format : UTF-8
Codec ID : S_TEXT/UTF8
Codec ID/Info : UTF-8 Plain Text
Duration : 23 min 45 s
Bit rate : 71 b/s
Count of elements : 264
Stream size : 12.5 KiB (0)
Language : Ukrainian
Default : No
Forced : No

Text #32
ID : 35
Format : UTF-8
Codec ID : S_TEXT/UTF8
Codec ID/Info : UTF-8 Plain Text
Duration : 23 min 45 s
Bit rate : 61 b/s
Count of elements : 262
Stream size : 10.6 KiB (0)
Language : Vietnamese
Default : No
Forced : No

Text #33
ID : 36
Format : UTF-8
Codec ID : S_TEXT/UTF8
Codec ID/Info : UTF-8 Plain Text
Duration : 23 min 45 s
Bit rate : 41 b/s
Count of elements : 264
Stream size : 7.22 KiB (0)
Title : Simplified
Language : Chinese
Default : No
Forced : No

Text #34
ID : 37
Format : UTF-8
Codec ID : S_TEXT/UTF8
Codec ID/Info : UTF-8 Plain Text
Duration : 23 min 45 s
Bit rate : 43 b/s
Count of elements : 263
Stream size : 7.50 KiB (0)
Title : Traditional
Language : Chinese
Default : No
Forced : No
Ocena użytkowników Help
Działa(0) | Fake(0) | Nie działa(0) | Wymagane hasło(0) | Wirus(0)
Statystyki seed/leech Ostatnio aktualizowane: 2022-05-30 19:10:44 [Aktualizuj]
Napisano: 06.07.2022 00:50
 
Nikt jeszcze nie skomentował tego torrenta... Może Ty to zrobisz?
Oświadczenie: Pliki prezentowane w katalogu nie znajdują się na serwerach wortalu. Użytkownicy zezwolili na ich udostępnienie. Administrator serwisu BitNova.info oraz właściciel serwera nie może ponieść konsekwencji za to co użytkownicy udostępniają i publikują. Pamiętaj! Nie możesz używać tego serwisu do rozpowszechniania lub ściągania materiałów do których nie masz odpowiednich praw lub licencji. Użytkownicy są odpowiedzialni za przestrzeganie tych zasad.

(Disclaimer: None files presented in the directory aren't hosted on servers vortal. Users allow their release. The administrator of site BitNova.info and owner of the server can not be held responsible for what its users post, or any other actions of its users. You may not use this site to distribute or download any material when you do not have the legal rights to do so. It is your own responsibility to adhere to these terms.)
» Zgłaszanie nadużyć / Abuse