Jedyny taki katalog polskich torrentów w sieci. Najlepsze torrenty w jednym miejscu.

Korzystanie ze strony jest darmowe. W przeciwieństwie do konkurencji nie kasujemy kont użytkowników bez ich wyraźnej prośby.


Torrent: Dystrykt 9 - District 9 (2009) [1080p] [H265] [HEVC][MP3][Lektor PL]

Dystrykt 9 - District 9 (2009) [1080p] [H265] [HEVC][MP3][Lektor PL]  torrent
Dodał: Ishimura
07.10.2021 03:26
Kategoria: Inne

Rozmiar: 2.91 GB
Seed'ów: 0
Leecher'ów: 2
Pobrań: 10

Kondycja:
 


» Komentarze [1]
» Obserwuj
» Zgłoś plik
...( Info )...

Ocena: 7,1/10 filmweb.pl
produkcja: Kanada Nowa ZelandiaRPAUSA
reżyseria: Neill Blomkamp
scenariusz:Neill Blomkamp Terri Tatchell
premiera:9 października 2009 (Polska) 13 sierpnia 2009 (świat)
gatunek:Dramat Sci-Fi

...( Opis )...

28 lat temu obcy przybywają na Ziemię. Ludzie oczekują na wrogi atak lub olbrzymi postęp technologiczny. Nic z tych rzeczy. Obcy stają się uchodźcami. Zostają osadzeni w prowizorycznej południowoafrykańskiej dzielnicy - Dystrykcie 9, póki państwa świata nie zadecydują, co z nimi zrobić.
Teraz cierpliwość w związku z sytuacją obcych wyczerpała się. Kontrolę nad nimi zlecono Multi-National United (MNU), prywatnej spółce nie dbającej o ich dobro - otrzymają ogromne zyski za zmuszenie ich do stworzenia niesamowitej broni. Jak dotąd zawodzą. Uruchomienie broni wymaga DNA obcych.
Napięcie między cudzoziemcami a ludźmi osiąga punkt krytyczny. Wikus Van De Merwe (Sharlto Copley) znajduje tajemniczy wirus, który zaczyna zmieniać jego DNA. Wikus szybko zostaje najbardziej zaszczutym człowiekiem na świecie, jak również najcenniejszym - jest kluczem do odkrycia tajemnic obcej technologii. Zostaje porzucony przez przyjaciół. Jest tylko jedno miejsce, gdzie może się ukryć: Dystrykt 9.

...( Obsada )...

Sharlto Copley ....... Wikus Van De Merwe
Jason Cope ....... Grey Bradnam, główny korespondent UKNR
Nathalie Boltt ....... Sarah Livingstone, socjolog
Sylvaine Strike ....... Dr Katrina McKenzie
Elizabeth Mkandawie ....... Udzielająca wywiadu
John Sumner ....... Les Feldman, inżynier MIL
William Allen Young ....... Dirk Michaels
Greg Melvill-Smith ....... Przeprowadzający wywiad

...( Dane Techniczne )...

Video
ID : 1
Format : HEVC
Format/Info : High Efficiency Video Coding
Format profile : MainL4Main
Codec ID : V_MPEGH/ISO/HEVC
Duration : 1 h 51 min
Bit rate : 3 527 kb/s
Width : 1 920 pixels
Height : 1 080 pixels
Display aspect ratio : 16:9
Frame rate mode : Constant
Frame rate : 23.976 (24000/1001) FPS
Color space : YUV
Chroma subsampling : 4:2:0
Bit depth : 8 bits
Bits/(PixelFrame) : 0.071
Stream size : 2.76 GiB (95)

Audio
ID : 2
Format : MPEG Audio
Format version : Version 1
Format profile : Layer 3
Format settings : Joint stereo / MS Stereo
Codec ID : A_MPEG/L3
Codec ID/Hint : MP3
Duration : 1 h 51 min
Bit rate mode : Constant
Bit rate : 128 kb/s
Channel(s) : 2 channels
Sampling rate : 48.0 kHz
Compression mode : Lossy
Stream size : 102 MiB (3)
Title : Stereo
Writing library : LAME3.100
Language : Polish
Ocena użytkowników Help
Działa(0) | Fake(0) | Nie działa(0) | Wymagane hasło(0) | Wirus(0)
Statystyki seed/leech Ostatnio aktualizowane: 2021-10-14 20:57:46 [Aktualizuj]
nedmen28
nedmen28
Napisano: 2021-10-07 19:43
 
Polecam. Dobre kino sf.
Oświadczenie: Pliki prezentowane w katalogu nie znajdują się na serwerach wortalu. Użytkownicy zezwolili na ich udostępnienie. Administrator serwisu BitNova.info oraz właściciel serwera nie może ponieść konsekwencji za to co użytkownicy udostępniają i publikują. Pamiętaj! Nie możesz używać tego serwisu do rozpowszechniania lub ściągania materiałów do których nie masz odpowiednich praw lub licencji. Użytkownicy są odpowiedzialni za przestrzeganie tych zasad.

(Disclaimer: None files presented in the directory aren't hosted on servers vortal. Users allow their release. The administrator of site BitNova.info and owner of the server can not be held responsible for what its users post, or any other actions of its users. You may not use this site to distribute or download any material when you do not have the legal rights to do so. It is your own responsibility to adhere to these terms.)
» Zgłaszanie nadużyć / Abuse