Jedyny taki katalog polskich torrentów w sieci. Najlepsze torrenty w jednym miejscu.

Korzystanie ze strony jest darmowe. W przeciwieństwie do konkurencji nie kasujemy kont użytkowników bez ich wyraźnej prośby.


Torrent: Nobody.2021.1080p.AMZN.WEBRip.DDP5.1.x264-MRCS [Napisy PL]

Nobody.2021.1080p.AMZN.WEBRip.DDP5.1.x264-MRCS [Napisy PL] torrent
Dodał: Ishimura
23.04.2021 04:42
Kategoria: Akcja

Rozmiar: 6.41 GB
Seed'ów: 1923
Leecher'ów: 135
Pobrań: 341018

Kondycja:
 


» Komentarze [1]
» Obserwuj
» Zgłoś plik
produkcja: USA
gatunek: Akcja, Kryminał, Thriller
premiera: 18 marca 2021 (świat)
wersja: [1080p] [Napisy PL] [IMDb 7,7/10] [Matroska] [7.97 GB] [1h 31min]

Opis

Czasami ktoś na kogo nie zwracasz uwagi jest najbardziej niebezpieczny ze wszystkich. "NIKT" to historia niedocenianego ojca i męża Hutcha Mansella granego przez Boba Odenkirka znanego z roli Saula Goodmana w serialu "Breaking Bad" i "Zadzwoń do Saula". Pewnego dnia w domu głównego bohatera dochodzi do włamania. Hutch nie podejmuje żadnej obrony przed przestępcami. Nastoletni syn, Blake oraz żona Becca (Connie Nielsen) są rozczarowani jego brakiem reakcji. Następstwem tego zdarzenia jest wyzwolenie u Hutcha uśpionych, mrocznych instynktów prowadzących na ścieżkę zła. Zmierzy się z poważnymi zagrożeniami dla niego i jego rodziny. Będzie musiał stawić czoła niebezpiecznemu przeciwnikowi (Aleksey Serebryakov). Hutch już nigdy nie pozostanie niezauważony.

Obsada

Bob Odenkirk ... Hutch Mansell
Christopher Lloyd ... Ojciec Hutcha
Connie Nielsen ... Becca Mansell
Kristen Harris ... Policjantka
Paul Essiembre ... Jim
Neven Pajkic ... Młody brutal
Boris Gulyarin ... Szef mafii
Destini Boldt ... Bywalczyni klubu

https://www.youtube.com/watch?v=DkJlmc2_u0Q&t=1s&ab_channel=TYLKOHITY

Video
ID : 1
Format : AVC
Format/Info : Advanced Video Codec
Format profile : HighL4
Format settings : CABAC / 4 Ref Frames
Format settings, CABAC : Yes
Format settings, Reference frames : 4 frames
Codec ID : V_MPEG4/ISO/AVC
Duration : 1 h 31 min
Bit rate mode : Constant
Bit rate : 9 368 kb/s
Nominal bit rate : 10 000 kb/s
Width : 1 920 pixels
Height : 800 pixels
Display aspect ratio : 2.40:1
Frame rate mode : Constant
Frame rate : 23.976 (24000/1001) FPS
Color space : YUV
Chroma subsampling : 4:2:0
Bit depth : 8 bits
Scan type : Progressive
Bits/(PixelFrame) : 0.254
Stream size : 6.00 GiB (94)
Default : Yes
Forced : No
Color range : Limited
Color primaries : BT.709
Transfer characteristics : BT.709
Matrix coefficients : BT.709

Audio
ID : 2
Format : E-AC-3
Format/Info : Enhanced AC-3
Commercial name : Dolby Digital Plus
Codec ID : A_EAC3
Duration : 1 h 31 min
Bit rate mode : Constant
Bit rate : 640 kb/s
Channel(s) : 6 channels
Channel layout : L R C LFE Ls Rs
Sampling rate : 48.0 kHz
Frame rate : 31.250 FPS (1536 SPF)
Compression mode : Lossy
Stream size : 420 MiB (6)
Language : English
Service kind : Complete Main
Default : Yes
Forced : No
Ocena użytkowników Help
Działa(0) | Fake(0) | Nie działa(0) | Wymagane hasło(0) | Wirus(0)
Statystyki seed/leech Ostatnio aktualizowane: 2021-05-16 13:27:33 [Aktualizuj]
Viserys
Viserys
Napisano: 2021-05-02 23:11
 
brak napisów pl
Oświadczenie: Pliki prezentowane w katalogu nie znajdują się na serwerach wortalu. Użytkownicy zezwolili na ich udostępnienie. Administrator serwisu BitNova.info oraz właściciel serwera nie może ponieść konsekwencji za to co użytkownicy udostępniają i publikują. Pamiętaj! Nie możesz używać tego serwisu do rozpowszechniania lub ściągania materiałów do których nie masz odpowiednich praw lub licencji. Użytkownicy są odpowiedzialni za przestrzeganie tych zasad.

(Disclaimer: None files presented in the directory aren't hosted on servers vortal. Users allow their release. The administrator of site BitNova.info and owner of the server can not be held responsible for what its users post, or any other actions of its users. You may not use this site to distribute or download any material when you do not have the legal rights to do so. It is your own responsibility to adhere to these terms.)
» Zgłaszanie nadużyć / Abuse