Jedyny taki katalog polskich torrentów w sieci. Najlepsze torrenty w jednym miejscu.

Korzystanie ze strony jest darmowe. W przeciwieństwie do konkurencji nie kasujemy kont użytkowników bez ich wyraźnej prośby.


Torrent: David Bowie - Hunky Dory (1971) (PBTHAL LP 24-96) [FLAC]

David Bowie - Hunky Dory (1971) (PBTHAL LP 24-96) [FLAC] torrent
Dodał: Ishimura
22.04.2021 03:02
Kategoria: Inna

Rozmiar: 834.69 MB
Seed'ów: 14
Leecher'ów: 0
Pobrań: 10

Kondycja:
 


» Komentarze [0]
» Obserwuj
» Zgłoś plik
...( Info )...

David Bowie
Hunky Dory (1971)
FLAC LOSSLESS 24bit-96kHz
EMI 100 PBTHAL Vinyl Rip

allmusic.com...

After the freakish hard rock of The Man Who Sold the World, David Bowie returned to singer/songwriter territory on Hunky Dory. Not only did the album boast more folky songs (Song for Bob Dylan, The Bewlay Brothers), but he again flirted with Anthony Newley-esque dancehall music (Kooks, Fill Your Heart), seemingly leaving heavy metal behind. As a result, Hunky Dory is a kaleidoscopic array of pop styles, tied together only by Bowies sense of vision: a sweeping, cinematic mélange of high and low art, ambiguous sexuality, kitsch, and class. Mick Ronsons guitar is pushed to the back, leaving Rick Wakemans cabaret piano to dominate the sound of the album. The subdued support accentuates the depth of Bowies material, whether its the revamped Tin Pan Alley of Changes, the Neil Young homage Quicksand, the soaring Life on Mars?, the rolling, vaguely homosexual anthem Oh You Pretty Things, or the dark acoustic rocker Andy Warhol. On the surface, such a wide range of styles and sounds would make an album incoherent, but Bowies improved songwriting and determined sense of style instead made Hunky Dory a touchstone for reinterpreting pops traditions into fresh, postmodern pop music.

foobar2000 1.4.3 / Dynamic Range Meter 1.1.1
log date: 2021-01-03 07:46:54

--------------------------------------------------------------------------------
Analyzed: David Bowie / Hunky Dory
--------------------------------------------------------------------------------

DR Peak RMS Duration Track
--------------------------------------------------------------------------------
DR12 -0.70 dB -17.47 dB 3:39 01-Changes
DR12 -1.62 dB -17.82 dB 3:13 02-Oh You Pretty Things
DR12 -6.39 dB -22.97 dB 2:57 03-Eight Line Poem
DR10 -2.36 dB -15.33 dB 3:54 04-Life On Mars?
DR12 -1.82 dB -15.95 dB 2:55 05-Kooks
DR11 -2.24 dB -17.73 dB 5:07 06-Quicksand
DR14 -3.07 dB -21.17 dB 3:10 07-Fill Your Heart
DR13 -1.92 dB -18.60 dB 3:54 08-Andy Warhol
DR13 -0.70 dB -17.71 dB 4:13 09-Song For Bob Dylan
DR12 -0.78 dB -15.89 dB 3:17 10-Queen Bitch
DR12 -5.17 dB -23.18 dB 5:25 11-The Bewlay Brothers

Number of tracks: 11
Official DR value: DR12

Samplerate: 96000 Hz
Channels: 2
Bits per sample: 24
Bitrate: 2576 kbps
Codec: FLAC
Ocena użytkowników Help
Działa(0) | Fake(0) | Nie działa(0) | Wymagane hasło(0) | Wirus(0)
Statystyki seed/leech Ostatnio aktualizowane: 2021-04-22 19:13:31 [Aktualizuj]
Napisano: 16.05.2021 15:16
 
Nikt jeszcze nie skomentował tego torrenta... Może Ty to zrobisz?
Oświadczenie: Pliki prezentowane w katalogu nie znajdują się na serwerach wortalu. Użytkownicy zezwolili na ich udostępnienie. Administrator serwisu BitNova.info oraz właściciel serwera nie może ponieść konsekwencji za to co użytkownicy udostępniają i publikują. Pamiętaj! Nie możesz używać tego serwisu do rozpowszechniania lub ściągania materiałów do których nie masz odpowiednich praw lub licencji. Użytkownicy są odpowiedzialni za przestrzeganie tych zasad.

(Disclaimer: None files presented in the directory aren't hosted on servers vortal. Users allow their release. The administrator of site BitNova.info and owner of the server can not be held responsible for what its users post, or any other actions of its users. You may not use this site to distribute or download any material when you do not have the legal rights to do so. It is your own responsibility to adhere to these terms.)
» Zgłaszanie nadużyć / Abuse