Jedyny taki katalog polskich torrentów w sieci. Najlepsze torrenty w jednym miejscu.

Korzystanie ze strony jest darmowe. W przeciwieństwie do konkurencji nie kasujemy kont użytkowników bez ich wyraźnej prośby.


Torrent: Piękność Dnia (1967) [480p] [DVDRip] [mp4] [Lektor PL]

Piękność Dnia (1967) [480p] [DVDRip] [mp4] [Lektor PL] torrent
Dodał: Ishimura
08.04.2021 05:06
Kategoria: Inne

Rozmiar: 914.43 MB
Seed'ów: 4
Leecher'ów: 0
Pobrań: 0

Kondycja:
 


» Komentarze [0]
» Obserwuj
» Zgłoś plik
...( Info )...

Reżyseria: Luis Buñuel
Scenariusz: Luis Buñuel / Jean-Claude Carrire
Produkcja: Francja / Włochy
Gatunek: dramat / psychologiczny
Premiera: 24 maja 1967 (świat)
1 godz. 41 min

https://www.filmweb.pl/film/PiC499knoC59BC487+dnia-1967-4105

...( Opis )...

Pomimo miłości do męża Severine czuje się niezaspokojona w małżeństwie. Po kryjomu kobieta zaczyna pracować jako prostytutka.

...( Obsada )...

Catherine Deneuve jako Séverine Serizy / Piękność dnia
Jean Sorel jako Pierre Serizy
Michel Piccoli jako Henri Husson
Genevive Page jako Madame Anais
Pierre Clémenti jako Marcel
Franoise Fabian,jako Charlotte

...( Dane Techniczne )...

Format : MPEG-4
Format profile : Base Media
Codec ID : isom (isom/iso2/avc1/mp41)
File size : 914 MiB
Duration : 1 h 36 min
Overall bit rate mode : Variable
Overall bit rate : 1 332 kb/s
Writing application : Lavf56.25.101

Video
Format : AVC
Format/Info : Advanced Video Codec
Format profile : BaselineL3
Format settings : 2 Ref Frames
Format settings, CABAC : No
Format settings, Reference : 2 frames
Format settings, GOP : M=1, N=50
Codec ID : avc1
Codec ID/Info : Advanced Video Coding
Duration : 1 h 36 min
Bit rate : 1 200 kb/s
Width : 854 pixels
Height : 466 pixels
Display aspect ratio : 1.85:1
Frame rate mode : Constant
Frame rate : 25.000 FPS
Color space : YUV
Chroma subsampling : 4:2:0
Bit depth : 8 bits
Scan type : Progressive
Bits/(PixelFrame) : 0.121
Stream size : 823 MiB (90)
Writing library : x264 core 146

Audio
Format : AAC LC
Format/Info : Advanced Audio Codec Low Complexity
Codec ID : mp4a-40-2
Duration : 1 h 36 min
Duration_LastFrame : -20 ms
Bit rate mode : Variable
Bit rate : 128 kb/s
Maximum bit rate : 1 200 kb/s
Channel(s) : 6 channels
Channel layout : C L R Ls Rs LFE
Sampling rate : 44.1 kHz
Frame rate : 43.066 FPS (1024 SPF)
Compression mode : Lossy
Stream size : 87.9 MiB (10)
Default : Yes
Language : Polish
Ocena użytkowników Help
Działa(0) | Fake(0) | Nie działa(0) | Wymagane hasło(0) | Wirus(0)
Statystyki seed/leech Ostatnio aktualizowane: 2021-04-12 18:26:29 [Aktualizuj]
Napisano: 20.04.2021 22:43
 
Nikt jeszcze nie skomentował tego torrenta... Może Ty to zrobisz?
Oświadczenie: Pliki prezentowane w katalogu nie znajdują się na serwerach wortalu. Użytkownicy zezwolili na ich udostępnienie. Administrator serwisu BitNova.info oraz właściciel serwera nie może ponieść konsekwencji za to co użytkownicy udostępniają i publikują. Pamiętaj! Nie możesz używać tego serwisu do rozpowszechniania lub ściągania materiałów do których nie masz odpowiednich praw lub licencji. Użytkownicy są odpowiedzialni za przestrzeganie tych zasad.

(Disclaimer: None files presented in the directory aren't hosted on servers vortal. Users allow their release. The administrator of site BitNova.info and owner of the server can not be held responsible for what its users post, or any other actions of its users. You may not use this site to distribute or download any material when you do not have the legal rights to do so. It is your own responsibility to adhere to these terms.)
» Zgłaszanie nadużyć / Abuse