Jedyny taki katalog polskich torrentów w sieci. Najlepsze torrenty w jednym miejscu.

Korzystanie ze strony jest darmowe. W przeciwieństwie do konkurencji nie kasujemy kont użytkowników bez ich wyraźnej prośby.


Torrent: Raya i Ostatni Smok & Co w duszy gra [AAC.MP4.1080p] [DoublePack] [Napisy PL]

Raya i Ostatni Smok & Co w duszy gra [AAC.MP4.1080p] [DoublePack] [Napisy PL] torrent
Dodał: Ishimura
31.03.2021 04:40
Kategoria: Filmy

Rozmiar: 5.25 GB
Seed'ów: 2
Leecher'ów: 3
Pobrań: 10

Kondycja:
 


» Komentarze [0]
» Obserwuj
» Zgłoś plik
Raya i Ostatni Smok (2021) 1080p Napisy PL

..::(Info)::..

Kraj produkcji: USA
Gatunek filmu: Animowany / Familijny / Przygodowy
Data premiery: 5 marca 2021 r. (USA)
Reżyseria: Don Hall, Carlos López Estrada

..::(Opis)::..

Dawno temu w fantastycznym świecie Kumandry ludzie i smoki żyli razem w harmonii. Jednak, gdy złowrogie potwory znane jako Druuny zagroziły krainie, smoki poświęciły się, by ocalić ludzkość. Teraz, 500 lat później, te same potwory powróciły, a samotny wojownik musi wytropić ostatniego smoka i zatrzymać Druuna na dobre.

..::(Obsada)::..

Kelly Marie Tran jako Raya (głos)
Awkwafina jako Sisu (głos)
Izaac Wang jako Boun (głos)
Gemma Chan jako Namaari (głos)

Co w duszy gra (2020) 1080p Napisy PL

...( Info )...

Produkcja: USA
Gatunek: Animacja, Komedia, Przygodowy
Premiera: 5 marca 2021 (Polska)
Reżyseria: Pete Docter
Scenariusz: Pete Docter, Mike Jones

...( Opis )...

W filmie śledzimy losy Joe Gardnera, który prowadzi zespół muzyczny w gimnazjum. Jego prawdziwą pasją jest jednak jazz. Joe przeżywa kryzys, jaki jest udziałem wszystkich artystów. Coraz wyraźniej dostrzega, że marzenie jego życia, by być muzykiem jazzowym, nie spełni się i dlatego zadaje sobie pytania Po co tu jestem? Jaki jest cel mojego życia?. Ale nadchodzi moment, kiedy Joe stwierdza, że jego marzenie może być w zasięgu ręki. Przez jedno nieoczekiwane zdarzenie trafia do fantastycznego miejsca, gdzie zostaje zmuszony, by ponownie zastanowić się nad tym, co to znaczy mieć duszę. Tam spotyka, a ostatecznie również zaprzyjaźnia się z 22 duszą, która uważa, że życie na Ziemi nie toczy się tak, jak powinno.

...( Obsada )...

Jamie Foxx .... Joe (głos)
Graham Norton .... Moonwind (głos)
Alice Braga .... Doradczyni Jerry (głos)
Richard Ayoade .... Doradca Jerry (głos)
Phylicia Rashad .... Libba (głos)
Donnell Rawlings .... Dez (głos)

...( Dane Techniczne )...

General
Complete name : Raya.and.the.Last.Dragon.2021.Napisy.PL.mp4
Format : MPEG-4
Format profile : Base Media
Codec ID : isom (isom/iso2/avc1/mp41)
File size : 3.10 GiB
Duration : 1 h 47 min
Overall bit rate : 4 135 kb/s
Writing application : Lavf58.45.100

Video
ID : 1
Format : AVC
Format/Info : Advanced Video Codec
Format profile : HighL5
Format settings : CABAC / 6 Ref Frames
Format settings, CABAC : Yes
Format settings, Reference frames : 6 frames
Codec ID : avc1
Codec ID/Info : Advanced Video Coding
Duration : 1 h 47 min
Bit rate : 3 736 kb/s
Width : 1 920 pixels
Height : 1 080 pixels
Display aspect ratio : 16:9
Frame rate mode : Constant
Frame rate : 23.976 (24000/1001) FPS
Color space : YUV
Chroma subsampling : 4:2:0
Bit depth : 8 bits
Scan type : Progressive
Bits/(PixelFrame) : 0.075
Stream size : 2.80 GiB (90)
Writing library : x264 core 161
Encoding settings : cabac=1 / ref=6 / deblock=1:1:1 / analyse=0x3:0x113 / me=hex / subme=7 / psy=1 / psy_rd=0.40:0.00 / mixed_ref=1 / me_range=16 / chroma_me=1 / trellis=1 / 8x8dct=1 / cqm=0 / deadzone=21,11 / fast_pskip=1 / chroma_qp_offset=-2 / threads=18 / lookahead_threads=3 / sliced_threads=0 / nr=0 / decimate=1 / interlaced=0 / bluray_compat=0 / constrained_intra=0 / bframes=5 / b_pyramid=2 / b_adapt=1 / b_bias=0 / direct=1 / weightb=1 / open_gop=0 / weightp=2 / keyint=250 / keyint_min=23 / scenecut=40 / intra_refresh=0 / rc_lookahead=40 / rc=crf / mbtree=1 / crf=20.0 / qcomp=0.60 / qpmin=0 / qpmax=69 / qpstep=4 / ip_ratio=1.40 / aq=1:0.60
Codec configuration box : avcC

Audio
ID : 2
Format : AAC LC
Format/Info : Advanced Audio Codec Low Complexity
Codec ID : mp4a-40-2
Duration : 1 h 47 min
Duration_LastFrame : -11 ms
Bit rate mode : Constant
Bit rate : 395 kb/s
Channel(s) : 6 channels
Channel layout : L R C Cb Lb Rb
Sampling rate : 48.0 kHz
Frame rate : 46.875 FPS (1024 SPF)
Compression mode : Lossy
Stream size : 303 MiB (10)
Default : Yes
Alternate group : 1
Ocena użytkowników Help
Działa(0) | Fake(0) | Nie działa(0) | Wymagane hasło(0) | Wirus(0)
Statystyki seed/leech Ostatnio aktualizowane: 2021-04-18 23:30:28 [Aktualizuj]
Napisano: 20.04.2021 16:22
 
Nikt jeszcze nie skomentował tego torrenta... Może Ty to zrobisz?
Oświadczenie: Pliki prezentowane w katalogu nie znajdują się na serwerach wortalu. Użytkownicy zezwolili na ich udostępnienie. Administrator serwisu BitNova.info oraz właściciel serwera nie może ponieść konsekwencji za to co użytkownicy udostępniają i publikują. Pamiętaj! Nie możesz używać tego serwisu do rozpowszechniania lub ściągania materiałów do których nie masz odpowiednich praw lub licencji. Użytkownicy są odpowiedzialni za przestrzeganie tych zasad.

(Disclaimer: None files presented in the directory aren't hosted on servers vortal. Users allow their release. The administrator of site BitNova.info and owner of the server can not be held responsible for what its users post, or any other actions of its users. You may not use this site to distribute or download any material when you do not have the legal rights to do so. It is your own responsibility to adhere to these terms.)
» Zgłaszanie nadużyć / Abuse