Jedyny taki katalog polskich torrentów w sieci. Najlepsze torrenty w jednym miejscu.

Korzystanie ze strony jest darmowe. W przeciwieństwie do konkurencji nie kasujemy kont użytkowników bez ich wyraźnej prośby.


Torrent: Derek And The Dominoes - Layla And Other Assorted Love Songs (1970) (PBTHAL LP 24-96) [FLAC]

Derek And The Dominoes - Layla And Other Assorted Love Songs (1970) (PBTHAL LP 24-96) [FLAC] torrent
Dodał: Ishimura
25.02.2021 07:38
Kategoria: Inna

Rozmiar: 1.56 GB
Seed'ów: 0
Leecher'ów: 0
Pobrań: 10

Kondycja:
 


» Komentarze [0]
» Obserwuj
» Zgłoś plik
...( Info )...

Derek And The Dominoes
Layla And Other Assorted Love Songs (1970)
FLAC LOSSLESS 24bit-96kHz
MFSL PBTHAL Vinyl Rip

allmusic.com...

Wishing to escape the superstar expectations that sank Blind Faith before it was launched, Eric Clapton retreated with several sidemen from Delaney & Bonnie to record the material that would form Layla and Other Assorted Love Songs. From these meager beginnings grew his greatest album. Duane Allman joined the band shortly after recording began, and his spectacular slide guitar pushed Clapton to new heights. Then again, Clapton may have gotten there without him, considering the emotional turmoil he was in during the recording. He was in hopeless, unrequited love with Pattie Boyd, the wife of his best friend, George Harrison, and that pain surges throughout Layla, especially on its epic title track. But what really makes Layla such a powerful record is that Clapton, ignoring the traditions that occasionally painted him into a corner, simply tears through these songs with burning, intense emotion. He makes standards like Have You Ever Loved a Woman and Nobody Knows You (When Youre Down and Out) into his own, while his collaborations with Bobby Whitlock -- including Any Day and Why Does Love Got to Be So Sad? -- teem with passion. And, considering what a personal album Layla is, its somewhat ironic that the lovely coda Thorn Tree in the Garden is a solo performance by Whitlock, and that the song sums up the entire album as well as Layla itself.

foobar2000 1.4.3 / Dynamic Range Meter 1.1.1
log date: 2020-11-25 16:03:52

--------------------------------------------------------------------------------
Analyzed: Derek And The Dominoes / Layla And Other Assorted Love Songs
--------------------------------------------------------------------------------

DR Peak RMS Duration Track
--------------------------------------------------------------------------------

...( TrackList )...

DR12 -3.42 dB -17.60 dB 3:06 01-I Looked Away
DR11 -1.89 dB -16.56 dB 5:03 02-Bell Bottom Blues
DR12 -2.37 dB -17.28 dB 6:21 03-Keep On Growing
DR13 -1.33 dB -18.33 dB 4:59 04-Nobody Knows You When Youre Down And Out
DR14 -3.84 dB -21.49 dB 3:36 05-I Am Yours
DR12 -0.70 dB -15.86 dB 6:37 06-Anyday
DR13 -1.62 dB -17.12 dB 9:40 07-Key To The Highway
DR11 -3.10 dB -17.75 dB 6:40 08-Tell The Truth
DR12 -1.31 dB -16.96 dB 4:44 09-Why Does Love Got To Be So Sad?
DR13 -2.50 dB -17.77 dB 6:54 10-Have You Ever Loved A Woman?
DR12 -1.25 dB -16.53 dB 5:34 11-Little Wing
DR11 -1.27 dB -16.97 dB 3:51 12-Its Too Late
DR11 -0.70 dB -15.46 dB 7:05 13-Layla
DR13 -6.34 dB -25.57 dB 2:52 14-Thorn Tree In The Garden

Number of tracks: 14
Official DR value: DR12

Samplerate: 96000 Hz
Channels: 2
Bits per sample: 24
Bitrate: 2549 kbps
Codec: FLAC
Ocena użytkowników Help
Działa(0) | Fake(0) | Nie działa(0) | Wymagane hasło(0) | Wirus(0)
Statystyki seed/leech Ostatnio aktualizowane: 2021-02-25 19:16:22 [Aktualizuj]
Napisano: 11.04.2021 17:51
 
Nikt jeszcze nie skomentował tego torrenta... Może Ty to zrobisz?
Oświadczenie: Pliki prezentowane w katalogu nie znajdują się na serwerach wortalu. Użytkownicy zezwolili na ich udostępnienie. Administrator serwisu BitNova.info oraz właściciel serwera nie może ponieść konsekwencji za to co użytkownicy udostępniają i publikują. Pamiętaj! Nie możesz używać tego serwisu do rozpowszechniania lub ściągania materiałów do których nie masz odpowiednich praw lub licencji. Użytkownicy są odpowiedzialni za przestrzeganie tych zasad.

(Disclaimer: None files presented in the directory aren't hosted on servers vortal. Users allow their release. The administrator of site BitNova.info and owner of the server can not be held responsible for what its users post, or any other actions of its users. You may not use this site to distribute or download any material when you do not have the legal rights to do so. It is your own responsibility to adhere to these terms.)
» Zgłaszanie nadużyć / Abuse