Jedyny taki katalog polskich torrentów w sieci. Najlepsze torrenty w jednym miejscu.

Korzystanie ze strony jest darmowe. W przeciwieństwie do konkurencji nie kasujemy kont użytkowników bez ich wyraźnej prośby.


Torrent: Linda Ronstadt - Greatest Hits Vol. 2 (1980) (PBTHAL LP 24-96) [FLAC]

Linda Ronstadt - Greatest Hits Vol. 2 (1980) (PBTHAL LP 24-96) [FLAC] torrent
Dodał: Ishimura
25.02.2021 07:30
Kategoria: Inna

Rozmiar: 731.09 MB
Seed'ów: 7
Leecher'ów: 1
Pobrań: 10

Kondycja:
 


» Komentarze [0]
» Obserwuj
» Zgłoś plik
...( Info )...

Linda Ronstadt
Greatest Hits Volume Two (1980)
FLAC LOSSLESS 24bit-96kHz
WLP PBTHAL Vinyl Rip

allmusic.com...

The best interpreter among 70s singer/songwriters, followed by a lengthy career bridging styles from country to soul to standards.

Picking up where the first volume left off, Greatest Hits, Vol. 2 contains Linda Ronstadts biggest hits from the late 70s, including such songs as Its So Easy, Hurt So Bad, Blue Bayou, Back in the U.S.A., Poor Poor Pitiful Me, Ooh Baby Baby, How Do I Make You, and Tumbling Dice. Since Ronstadts late-70s albums tended to be a little spotty, this is a very useful summation of their highlights.

foobar2000 1.4.3 / Dynamic Range Meter 1.1.1
log date: 2020-12-30 15:08:39

--------------------------------------------------------------------------------
Analyzed: Linda Ronstadt / Greatest Hits Volume Two
--------------------------------------------------------------------------------

DR Peak RMS Duration Track
--------------------------------------------------------------------------------

...( TrackList )...

DR13 -1.37 dB -16.81 dB 2:27 01-Its So Easy
DR12 -1.09 dB -15.94 dB 2:45 02-I Cant Let Go
DR14 -1.27 dB -18.46 dB 3:19 03-Hurt So Bad
DR15 -1.29 dB -20.33 dB 3:55 04-Blue Bayou
DR14 -1.67 dB -17.85 dB 2:23 05-How Do I Make You
DR14 -0.81 dB -16.71 dB 3:04 06-Back In The U.S.A.
DR13 -2.87 dB -19.52 dB 3:19 07-Ooh Baby Baby
DR13 -1.12 dB -16.34 dB 3:43 08-Poor, Poor Pitiful Me
DR13 -0.70 dB -15.97 dB 3:08 09-Tumbling Dice
DR13 -1.39 dB -16.39 dB 3:20 10-Just One Look
DR14 -1.80 dB -19.78 dB 4:04 11-Someone To Lay Down Beside Me

Number of tracks: 11
Official DR value: DR14

Samplerate: 96000 Hz
Channels: 2
Bits per sample: 24
Bitrate: 2884 kbps
Codec: FLAC
Ocena użytkowników Help
Działa(0) | Fake(0) | Nie działa(0) | Wymagane hasło(0) | Wirus(0)
Statystyki seed/leech Ostatnio aktualizowane: 2021-03-31 19:34:12 [Aktualizuj]
Napisano: 14.04.2021 07:19
 
Nikt jeszcze nie skomentował tego torrenta... Może Ty to zrobisz?
Oświadczenie: Pliki prezentowane w katalogu nie znajdują się na serwerach wortalu. Użytkownicy zezwolili na ich udostępnienie. Administrator serwisu BitNova.info oraz właściciel serwera nie może ponieść konsekwencji za to co użytkownicy udostępniają i publikują. Pamiętaj! Nie możesz używać tego serwisu do rozpowszechniania lub ściągania materiałów do których nie masz odpowiednich praw lub licencji. Użytkownicy są odpowiedzialni za przestrzeganie tych zasad.

(Disclaimer: None files presented in the directory aren't hosted on servers vortal. Users allow their release. The administrator of site BitNova.info and owner of the server can not be held responsible for what its users post, or any other actions of its users. You may not use this site to distribute or download any material when you do not have the legal rights to do so. It is your own responsibility to adhere to these terms.)
» Zgłaszanie nadużyć / Abuse