Jedyny taki katalog polskich torrentów w sieci. Najlepsze torrenty w jednym miejscu.

Korzystanie ze strony jest darmowe. W przeciwieństwie do konkurencji nie kasujemy kont użytkowników bez ich wyraźnej prośby.


Torrent: Linda Ronstadt - Greatest Hits (1976) (PBTHAL LP 24-96) [FLAC]

Linda Ronstadt - Greatest Hits (1976) (PBTHAL LP 24-96) [FLAC] torrent
Dodał: Ishimura
25.02.2021 07:26
Kategoria: Inna

Rozmiar: 0.00 KB
Seed'ów: (?)
Leecher'ów: (?)
Pobrań: (?)

Kondycja:
 


» Komentarze [0]
» Obserwuj
» Zgłoś plik
...( Info )...

Linda Ronstadt
Greatest Hits (1976)
FLAC LOSSLESS 24bit-96kHz
PBTHAL Vinyl Rip

allmusic.com...

Linda Ronstadt began as the clear-voiced, country-influenced singer for 60s folk-rockers the Stone Poneys, where she covered tunes by the likes of Mike Nesmith and Tim Buckley. That knack for choosing material served her well in the second half of the 70s, when she became a pop superstar interpreting songs by everyone from Dave Edmunds and Elvis Costello to Chuck Berry and Roy Orbison. Subsequently, she has shown her diversity by cutting albums of jazz standards, traditional Mexican music, and pure country.

Greatest Hits, Vol. 1 is a good 12-track collection of Linda Ronstadts biggest hits from the early 70s, beginning with the Stone Poneys Different Drum and running through Tracks of My Tears, from 1975s Prisoner in Disguise. In between, all of her best-known songs -- Youre No Good, When Will I Be Loved, Heat Wave -- are included, plus selected minor hits, making it an excellent overview of her peak years.

foobar2000 1.4.3 / Dynamic Range Meter 1.1.1
log date: 2020-12-30 14:56:13

--------------------------------------------------------------------------------
Analyzed: Linda Ronstadt / Greatest Hits
--------------------------------------------------------------------------------

DR Peak RMS Duration Track
--------------------------------------------------------------------------------

...( TrackList )...

DR11 -1.41 dB -15.66 dB 3:49 01-Youre No Good
DR12 -1.17 dB -15.74 dB 2:30 02-Silver Threads And Golden Needles
DR14 -1.08 dB -19.00 dB 3:36 03-Desperado
DR14 -1.00 dB -17.61 dB 2:50 04-Love Is A Rose
DR12 -1.16 dB -15.14 dB 2:35 05-Thatll Be The Day
DR11 -3.42 dB -18.03 dB 4:26 06-Long, Long Time
DR11 -3.41 dB -16.69 dB 2:41 07-Different Drum (With The Stone Poneys)
DR11 -1.15 dB -14.55 dB 2:13 08-When Will I Be Loved?
DR11 -1.24 dB -16.21 dB 4:15 09-Love Has No Pride
DR13 -1.17 dB -15.69 dB 2:48 10-Heat Wave
DR12 -2.31 dB -16.98 dB 3:32 11-It Doesnt Matter Anymore
DR12 -1.00 dB -15.48 dB 3:14 12-Tracks Of My Tears

Number of tracks: 12
Official DR value: DR12

Samplerate: 96000 Hz
Channels: 2
Bits per sample: 24
Bitrate: 2933 kbps
Codec: FLAC
Ocena użytkowników Help
Działa(0) | Fake(0) | Nie działa(0) | Wymagane hasło(0) | Wirus(0)
Statystyki seed/leech Ostatnio aktualizowane: 2021-02-18 07:26:03 [Aktualizuj]
Napisano: 11.04.2021 17:24
 
Nikt jeszcze nie skomentował tego torrenta... Może Ty to zrobisz?
Oświadczenie: Pliki prezentowane w katalogu nie znajdują się na serwerach wortalu. Użytkownicy zezwolili na ich udostępnienie. Administrator serwisu BitNova.info oraz właściciel serwera nie może ponieść konsekwencji za to co użytkownicy udostępniają i publikują. Pamiętaj! Nie możesz używać tego serwisu do rozpowszechniania lub ściągania materiałów do których nie masz odpowiednich praw lub licencji. Użytkownicy są odpowiedzialni za przestrzeganie tych zasad.

(Disclaimer: None files presented in the directory aren't hosted on servers vortal. Users allow their release. The administrator of site BitNova.info and owner of the server can not be held responsible for what its users post, or any other actions of its users. You may not use this site to distribute or download any material when you do not have the legal rights to do so. It is your own responsibility to adhere to these terms.)
» Zgłaszanie nadużyć / Abuse