Jedyny taki katalog polskich torrentów w sieci. Najlepsze torrenty w jednym miejscu.

Korzystanie ze strony jest darmowe. W przeciwieństwie do konkurencji nie kasujemy kont użytkowników bez ich wyraźnej prośby.


Torrent: Wilk na 100 - 100 Percent Wolf (2020) [1080p BluRay x264-HANDJOB] [ENG] [Sub.ENG, Sp]

Wilk na 100 - 100 Percent Wolf (2020) [1080p BluRay x264-HANDJOB] [ENG] [Sub.ENG, Sp] torrent
Dodał: Ishimura
25.01.2021 09:02
Kategoria: Animowane

Rozmiar: 8.32 GB
Seed'ów: 9
Leecher'ów: 1
Pobrań: 55

Kondycja:
 


» Komentarze [0]
» Obserwuj
» Zgłoś plik
Info
https://www.imdb.com/title/tt8774798/
https://www.filmweb.pl/film/Wilk+na+100-2020-858697
Gatunek: Animacja, Komedia
Produkcja: Australia
Data premiery: 7 października 2020 (świat)
Reżyser: Alexs Stadermann
Scenariusz: Fin Edquist
Producenci: Barbara Stephen, Alexia Gates-Foale

https://www.youtube.com/watch?v=osbSKKS77SU

Opis
Freddy Lupin ma prawie trzynaście lat i jest dziedzicem znamienitego rodu wilkołaków. Tak, tak, wilkołaki żyją wśród nas Za dnia wyglądają jak ludzie, ale nocami zmieniają się w wilki. Freddy właśnie w dniu swoich trzynastych urodzin po raz pierwszy ma przejść przemianę i stanąć na czele swojej watahy. Jego ojciec też był kiedyś wodzem, ale poległ w obronie słabszych. Magiczna przemiana nie dokonuje się tak, jak to sobie Freddy wymarzył. Zamiast przybrać postać potężnego, budzącego respekt wilka, chłopak zmienia się w uroczego białego pudelka o różowej grzywce. W tej sytuacji, zamiast wodzem staje się pośmiewiskiem, a zaraz potem bezdomnym psem ściganym przez łowców bezpańskich zwierząt i pewnego szalonego mściciela. Freddy wciąż ma jednak serce wilka i nie zamierza się poddać. Z pomocą swojej nowej przyjaciółki, suczki Batty i całej czworonożnej ulicznej ferajny, Freddy Lupin udowodni, że nawet mały biały pudelek może być stuprocentowym wilkiem, jeśli tylko ma odwagę, rozum i krąg zaufanych przyjaciół.

Obsada
Ilai Swindells jako Freddy Lupin
Magda Szubanski jako pani Baranina
Rhys Darby jako Foxwell Cripp
Akmal Saleh jako Hamish
Samara Weaving as Batty
Jai Courtney jako Flasheart
Jane Lynch jako dowódca
Rupert Degas jako Hotspur
Sarah Harper jako Twitchy
Michael Bourchier jako Lord Hightail
Kate Hall jako Lady Hightail
Adriane Daff jako Harriet
Liam Graham jako Rydwan
Alexs Stadermann jako Cerberus
Jerra Wright Smith jako Młody Freddy

Screenshot / Wideo
User image
User image
User image

Dane Techniczne
MediaInfo
Video
ID : 1
Format : AVC
Format/Info : Advanced Video Codec
Format profile : HighL4.1
Format settings : CABAC / 4 Ref Frames
Format settings, CABAC : Yes
Format settings, Reference frames : 4 frames
Codec ID : V_MPEG4/ISO/AVC
Duration : 1 h 35 min
Bit rate : 11.8 Mb/s
Width : 1 920 pixels
Height : 1 032 pixels
Display aspect ratio : 1.85:1
Frame rate mode : Constant
Frame rate : 24.000 FPS
Color space : YUV
Chroma subsampling : 4:2:0
Bit depth : 8 bits
Scan type : Progressive
Bits/(PixelFrame) : 0.248
Stream size : 7.88 GiB (95)
Writing library : x264 core 157 r2935 545de2f
Encoding settings : cabac=1 / ref=4 / deblock=1:-3:-3 / analyse=0x3:0x133 / me=umh / subme=11 / psy=1 / psy_rd=1.00:0.00 / mixed_ref=1 / me_range=32 / chroma_me=1 / trellis=2 / 8x8dct=1 / cqm=0 / deadzone=21,11 / fast_pskip=0 / chroma_qp_offset=-2 / threads=6 / lookahead_threads=1 / sliced_threads=0 / nr=0 / decimate=0 / interlaced=0 / bluray_compat=0 / constrained_intra=0 / bframes=16 / b_pyramid=2 / b_adapt=2 / b_bias=0 / direct=3 / weightb=1 / open_gop=0 / weightp=2 / keyint=240 / keyint_min=24 / scenecut=40 / intra_refresh=0 / rc_lookahead=60 / rc=crf / mbtree=0 / crf=15.0 / qcomp=0.60 / qpmin=0 / qpmax=69 / qpstep=4 / vbv_maxrate=62500 / vbv_bufsize=78125 / crf_max=0.0 / nal_hrd=none / filler=0 / ip_ratio=1.30 / pb_ratio=1.20 / aq=1:0.90
Default : Yes
Forced : No
Color range : Limited
Color primaries : BT.709
Transfer characteristics : BT.709
Matrix coefficients : BT.709

Audio
ID : 2
Format : AC-3
Format/Info : Audio Coding 3
Commercial name : Dolby Digital
Codec ID : A_AC3
Duration : 1 h 35 min
Bit rate mode : Constant
Bit rate : 640 kb/s
Channel(s) : 6 channels
Channel layout : L R C LFE Ls Rs
Sampling rate : 48.0 kHz
Frame rate : 31.250 FPS (1536 SPF)
Compression mode : Lossy
Stream size : 438 MiB (5)
Language : English
Service kind : Complete Main
Default : Yes
Forced : No

Text #1
ID : 3
Format : UTF-8
Codec ID : S_TEXT/UTF8
Codec ID/Info : UTF-8 Plain Text
Duration : 1 h 32 min
Bit rate : 58 b/s
Count of elements : 1646
Stream size : 39.8 KiB (0)
Title : SRT
Language : English
Default : Yes
Forced : No

Text #2
ID : 4
Format : PGS
Muxing mode : zlib
Codec ID : S_HDMV/PGS
Codec ID/Info : Picture based subtitle format used on BDs/HD-DVDs
Duration : 1 h 28 min
Bit rate : 32.7 kb/s
Count of elements : 1880
Stream size : 20.7 MiB (0)
Language : Spanish
Default : No
Forced : No

Menu
00:00:00.000 : :Chapter 01
00:05:47.042 : :Chapter 02
00:14:16.792 : :Chapter 03
00:24:05.250 : :Chapter 04
00:31:45.167 : :Chapter 05
00:38:38.542 : :Chapter 06
00:47:44.167 : :Chapter 07
00:54:29.458 : :Chapter 08
01:03:28.458 : :Chapter 09
01:13:32.417 : :Chapter 10
01:22:13.792 : :Chapter 11
01:28:19.500 : :Chapter 12
Ocena użytkowników Help
Działa(0) | Fake(0) | Nie działa(0) | Wymagane hasło(0) | Wirus(0)
Statystyki seed/leech Ostatnio aktualizowane: 2021-03-15 21:09:07 [Aktualizuj]
Napisano: 16.04.2021 16:36
 
Nikt jeszcze nie skomentował tego torrenta... Może Ty to zrobisz?
Oświadczenie: Pliki prezentowane w katalogu nie znajdują się na serwerach wortalu. Użytkownicy zezwolili na ich udostępnienie. Administrator serwisu BitNova.info oraz właściciel serwera nie może ponieść konsekwencji za to co użytkownicy udostępniają i publikują. Pamiętaj! Nie możesz używać tego serwisu do rozpowszechniania lub ściągania materiałów do których nie masz odpowiednich praw lub licencji. Użytkownicy są odpowiedzialni za przestrzeganie tych zasad.

(Disclaimer: None files presented in the directory aren't hosted on servers vortal. Users allow their release. The administrator of site BitNova.info and owner of the server can not be held responsible for what its users post, or any other actions of its users. You may not use this site to distribute or download any material when you do not have the legal rights to do so. It is your own responsibility to adhere to these terms.)
» Zgłaszanie nadużyć / Abuse