Jedyny taki katalog polskich torrentów w sieci. Najlepsze torrenty w jednym miejscu.

Korzystanie ze strony jest darmowe. W przeciwieństwie do konkurencji nie kasujemy kont użytkowników bez ich wyraźnej prośby.


Torrent: GENERAŁ DAIMOS 1978 - [RMVB] SERIA

GENERAŁ DAIMOS 1978 - [RMVB] SERIA torrent
Dodał: Kalinkus28
19.01.2021 21:09
Kategoria: Filmy

Rozmiar: 3.53 GB
Seed'ów: 3
Leecher'ów: 0
Pobrań: 46

Kondycja:
 


» Komentarze [0]
» Obserwuj
» Zgłoś plik

Ziemię atakują Baamisjanie - potężni kosmici o wyglądzie aniołów. Nowy Jork, Madryt, Moskwa i Londyn leżą w gruzach, zrujnowane przez roboty Baamisjan. Planeta przybyszów została zniszczona w wyniku zderzenia z inną. Ziemia ma zostać nowym domem kosmitów, po przeprowadzeniu eksterminacji jej mieszkańców.
Grupie naukowców pod przewodnictwem profesora Izumiego udało się skonstruować potężny, mierzący czterdzieści pięć metrów i ważący sto pięćdziesiąt ton, prom bitewny zwany Generał Daimos. Pilotem robota bojowego zostaje Kazuya Ryuzaki, młody pilot, którego ojciec został zamordowany przez baamisjańskiego admirała Richitera. Wkrótce Kazuya zakochuje się w Erice, siostrze Richitera. Jednak Kazuya i Generał Daimos nie mogą przerwać walki z robotami przeciwników.


General
Complete name : D:Generał DaimosGenerał Daimos - 00 - Opening.rmvb
Format : RealMedia
File size : 8.56 MiB
Duration : 1 min 6 s
Overall bit rate : 543 kb/s

Video
ID : 1
Format : RealVideo 4
Codec ID : RV40
Codec ID/Info : Based on AVC (H.264), Real Player 9
Duration : 1 min 6 s
Bit rate : 479 kb/s
Width : 640 pixels
Height : 480 pixels
Display aspect ratio : 4:3
Frame rate : 25.000 FPS
Bits/(Pixel*Frame) : 0.062
Stream size : 3.81 MiB (44%)

Audio
ID : 0
Format : Cooker
Codec ID : cook
Codec ID/Info : Based on G.722.1, Real Player 6
Duration : 1 min 6 s
Bit rate : 64.1 kb/s
Channel(s) : 2 channels
Sampling rate : 44.1 kHz
Bit depth : 16 bits
Stream size : 523 KiB (6%)
Ocena użytkowników Help
Działa(0) | Fake(0) | Nie działa(0) | Wymagane hasło(0) | Wirus(0)
Statystyki seed/leech Ostatnio aktualizowane: 2021-04-08 20:42:02 [Aktualizuj]
Tagi general daimos
Napisano: 20.04.2021 15:58
 
Nikt jeszcze nie skomentował tego torrenta... Może Ty to zrobisz?
Oświadczenie: Pliki prezentowane w katalogu nie znajdują się na serwerach wortalu. Użytkownicy zezwolili na ich udostępnienie. Administrator serwisu BitNova.info oraz właściciel serwera nie może ponieść konsekwencji za to co użytkownicy udostępniają i publikują. Pamiętaj! Nie możesz używać tego serwisu do rozpowszechniania lub ściągania materiałów do których nie masz odpowiednich praw lub licencji. Użytkownicy są odpowiedzialni za przestrzeganie tych zasad.

(Disclaimer: None files presented in the directory aren't hosted on servers vortal. Users allow their release. The administrator of site BitNova.info and owner of the server can not be held responsible for what its users post, or any other actions of its users. You may not use this site to distribute or download any material when you do not have the legal rights to do so. It is your own responsibility to adhere to these terms.)
» Zgłaszanie nadużyć / Abuse