Jedyny taki katalog polskich torrentów w sieci. Najlepsze torrenty w jednym miejscu.

Korzystanie ze strony jest darmowe. W przeciwieństwie do konkurencji nie kasujemy kont użytkowników bez ich wyraźnej prośby.


Torrent: BYŁ SOBIE CZŁOWIEK 1978 [KOMPLET] [DIVIX] [DUBBING PL]

BYŁ SOBIE CZŁOWIEK 1978 [KOMPLET] [DIVIX] [DUBBING PL] torrent
Dodał: Kalinkus28
17.01.2021 20:47
Kategoria: Filmy

Rozmiar: 4.02 GB
Seed'ów: 6
Leecher'ów: 0
Pobrań: 127

Kondycja:
 


» Komentarze [1]
» Obserwuj
» Zgłoś plik
Rok produkcji 1978

Serial animowany autorstwa Alberta Barillé prezentujący, w przystępnej dla najmłodszych formie, historię świata i człowieka. W każdym z prezentowanych okresów historycznych pojawia się grupa tych samych bohaterów, z charakterystycznym brodatym Mistrzem na czele, której życie wtopione jest w szerszy obraz historii - zachodzących na świecie przemian, najważniejszych wydarzeń, wojen, bitew. W ten sposób prezentowana jest historia ludzi od czasów prehistorycznych aż do czasów dzisiejszych.

General
Complete name : D:ajkiBył Sobie Człowiek (danio68)Był sobie Człowiek 01 Była Sobie Ziemia.avi
Format : AVI
Format/INFO : Audio Video Interleave
File size : 162 MiB
Duration : 25 min 10 s
Overall bit rate mode : Variable
Overall bit rate : 901 kb/s
Writing application : MEncoder Sherpya-SVN-r27811-4.2.5
Writing library : MPlayer

Video
ID : 0
Format : MPEG-4 Visual
Format profile : Simple@L3
Format settings, BVOP : No
Format settings, QPel : No
Format settings, GMC : No warppoints
Format settings, Matrix : Default (H.263)
Codec ID : XVID
Codec ID/Hint : XviD
Duration : 25 min 10 s
Bit rate : 767 kb/s
Width : 720 pixels
Height : 576 pixels
Display aspect ratio : 4:3
Original display aspect rat : 5:4
Frame rate : 30.000 FPS
Color space : YUV
Chroma subsampling : 4:2:0
Bit depth : 8 bits
Scan type : Progressive
Compression mode : Lossy
Bits/(Pixel*Frame) : 0.062
Stream size : 138 MiB (85%)
Writing library : XviD 1.1.2 (UTC 2006-11-01)

Audio
ID : 1
Format : MPEG Audio
Format version : Version 1
Format profile : Layer 3
Format settings : Joint stereo / MS Stereo
Codec ID : 55
Codec ID/Hint : MP3
Duration : 25 min 10 s
Bit rate mode : Variable
Bit rate : 121 kb/s
Channel(s) : 2 channels
Sampling rate : 44.1 kHz
Compression mode : Lossy
Stream size : 21.7 MiB (13%)
Alignment : Aligned on interleaves
Interleave, duration : 26 ms (0.78 video frame)
Interleave, preload duratio : 507 ms
Ocena użytkowników Help
Działa(0) | Fake(0) | Nie działa(0) | Wymagane hasło(0) | Wirus(0)
Statystyki seed/leech Ostatnio aktualizowane: 2021-04-13 21:59:40 [Aktualizuj]
Tagi byl sobie czlowiek
Ludvikus
Ludvikus
Napisano: 2021-01-19 00:09
 
Dzięki za wstawkę
Oświadczenie: Pliki prezentowane w katalogu nie znajdują się na serwerach wortalu. Użytkownicy zezwolili na ich udostępnienie. Administrator serwisu BitNova.info oraz właściciel serwera nie może ponieść konsekwencji za to co użytkownicy udostępniają i publikują. Pamiętaj! Nie możesz używać tego serwisu do rozpowszechniania lub ściągania materiałów do których nie masz odpowiednich praw lub licencji. Użytkownicy są odpowiedzialni za przestrzeganie tych zasad.

(Disclaimer: None files presented in the directory aren't hosted on servers vortal. Users allow their release. The administrator of site BitNova.info and owner of the server can not be held responsible for what its users post, or any other actions of its users. You may not use this site to distribute or download any material when you do not have the legal rights to do so. It is your own responsibility to adhere to these terms.)
» Zgłaszanie nadużyć / Abuse