Jedyny taki katalog polskich torrentów w sieci. Najlepsze torrenty w jednym miejscu.

Korzystanie ze strony jest darmowe. W przeciwieństwie do konkurencji nie kasujemy kont użytkowników bez ich wyraźnej prośby.


Torrent: BYŁY SOBIE ODKRYCIA PL

BYŁY SOBIE ODKRYCIA PL torrent
Dodał: Kalinkus28
17.01.2021 20:21
Kategoria: Filmy

Rozmiar: 4.30 GB
Seed'ów: 1
Leecher'ów: 1
Pobrań: 147

Kondycja:
 


» Komentarze [1]
» Obserwuj
» Zgłoś plik
rok produkcji 1994

Były sobie odkrycia to kolejna część znakomitej francuskiej serii animowanej, której twórcą jest Albert Barillé. 26-odcinkowy serial opowiada o najwybitniejszych uczonych wszechczasów, ich odkryciach z różnych dziedzin m.in. fizyki, chemii, astronomii, biologii i ich wynalazkach.
Jeden z 25-minutowych odcinków jest poświęcony Leonardo da Vinci, inny Galileuszowi, kolejne Isaacowi Newtonowi, Faradayowi, Darwinowi, Mendlowi , Pasteurowi wynalazcy penicyliny, Thomasowi Edisonowi, a także polskiej noblistce Marii Skłodowskiej-Curie


General
Complete name : D:ajkiByły sobie odkrycia (danio68)1. Były sobie odkrycia - Chińczycy.avi
Format : AVI
Format/INFO : Audio Video Interleave
File size : 157 MiB
Duration : 24 min 21 s
Overall bit rate mode : Variable
Overall bit rate : 904 kb/s
Writing application : MEncoder Sherpya-SVN-r27811-4.2.5
Writing library : MPlayer

Video
ID : 0
Format : MPEG-4 Visual
Format profile : Simple@L1
Format settings, BVOP : No
Format settings, QPel : No
Format settings, GMC : No warppoints
Format settings, Matrix : Default (H.263)
Codec ID : DIVX
Codec ID/INFO : Project Mayo
Codec ID/Hint : DivX 4
Duration : 24 min 21 s
Bit rate : 769 kb/s
Width : 640 pixels
Height : 480 pixels
Display aspect ratio : 4:3
Frame rate : 25.000 FPS
Color space : YUV
Chroma subsampling : 4:2:0
Bit depth : 8 bits
Scan type : Progressive
Compression mode : Lossy
Bits/(Pixel*Frame) : 0.100
Stream size : 134 MiB (85%)
Writing library : Lavc52.0.0

Audio
ID : 1
Format : MPEG Audio
Format version : Version 1
Format profile : Layer 3
Format settings : Joint stereo / MS Stereo
Codec ID : 55
Codec ID/Hint : MP3
Duration : 24 min 21 s
Bit rate mode : Variable
Bit rate : 123 kb/s
Channel(s) : 2 channels
Sampling rate : 44.1 kHz
Compression mode : Lossy
Stream size : 21.4 MiB (14%)
Alignment : Aligned on interleaves
Interleave, duration : 26 ms (0.65 video frame)
Interleave, preload duratio : 518 ms
Ocena użytkowników Help
Działa(0) | Fake(0) | Nie działa(0) | Wymagane hasło(0) | Wirus(0)
Statystyki seed/leech Ostatnio aktualizowane: 2021-04-04 10:44:14 [Aktualizuj]
Tagi byly sobie odkrycia
Ludvikus
Ludvikus
Napisano: 2021-01-19 00:07
 
Dzięki za wstawkę
Oświadczenie: Pliki prezentowane w katalogu nie znajdują się na serwerach wortalu. Użytkownicy zezwolili na ich udostępnienie. Administrator serwisu BitNova.info oraz właściciel serwera nie może ponieść konsekwencji za to co użytkownicy udostępniają i publikują. Pamiętaj! Nie możesz używać tego serwisu do rozpowszechniania lub ściągania materiałów do których nie masz odpowiednich praw lub licencji. Użytkownicy są odpowiedzialni za przestrzeganie tych zasad.

(Disclaimer: None files presented in the directory aren't hosted on servers vortal. Users allow their release. The administrator of site BitNova.info and owner of the server can not be held responsible for what its users post, or any other actions of its users. You may not use this site to distribute or download any material when you do not have the legal rights to do so. It is your own responsibility to adhere to these terms.)
» Zgłaszanie nadużyć / Abuse