Jedyny taki katalog polskich torrentów w sieci. Najlepsze torrenty w jednym miejscu.

Korzystanie ze strony jest darmowe. W przeciwieństwie do konkurencji nie kasujemy kont użytkowników bez ich wyraźnej prośby.


Torrent: Nowiny ze świata - News of the World 2020 [1080p.AMZN.WEBRip.DDP5.1.x264-NOGRP] [ENG] [Sub.ENG]

 Nowiny ze świata - News of the World 2020 [1080p.AMZN.WEBRip.DDP5.1.x264-NOGRP] [ENG] [Sub.ENG] torrent
Dodał: Ishimura
15.01.2021 08:18
Kategoria: Wojenne

Rozmiar: 6.63 GB
Seed'ów: 0
Leecher'ów: 0
Pobrań: 0

Kondycja:
 


» Komentarze [0]
» Obserwuj
» Zgłoś plik
Info
https://www.imdb.com/title/tt6878306/
https://www.filmweb.pl/film/Nowiny+ze+C59Bwiata-2020-840401
Gatunek: Dramat / Western
Produkcja: USA
Operator: Dariusz Wolski
Na podstawie: News of the World: A Novel by Paulette Jiles
Data premiery: 25 grudnia 2020 (świat)
Reżyser: Paul Greengrass
Scenariusz: Paul Greengrass, Luke Davies

https://www.youtube.com/watch?v=zTZDb

Opis
Kapitan Jefferson Kyle Kidd, siedemdziesięcioletni wdowiec, weteran kilku wojen, przemierza północny Teksas, urządzając w miasteczkach odczyty dla spragnionej wieści ze świata publiczności.
Pewnego dnia jego znajomy Britt Johnson zwraca się do niego z nietypową prośbą za pięćdziesiąt dolarów w złocie Kidd ma przewieźć dziesięcioletnią dziewczynkę do jej krewnych w San Antonio.
Cztery lata wcześniej Johanna została uprowadzona przez Kiowów, którzy na jej oczach zamordowali jej rodziców i siostrę, a potem wychowali ją jak własne dziecko. Teraz została odkupiona z niewoli i wyrwana ze świata, którego częścią się stała.

Obsada
Tom Hanks jako kapitan Jefferson Kyle Kidd
Helena Zengel jako Johanna Leonberger / Cicada
Michael Covino jako Mark Edgefield
Fred Hechinger jako John Calley
Neil Sandilands jako Wilhelm Leonberger
Thomas Francis Murphy jako Merritt Farley
Mare Winningham jako Jane
Elizabeth Marvel jako Ella Gannett
Chukwudi Iwuji jako Charles Edgefield
Ray McKinnon jako Christopher John CJ? Kidd
Bill Camp jako Corey Farley

Screenshot / Wideo
User image
User image
User image

Dane Techniczne
MediaInfo
Video
ID : 1
Format : AVC
Format/Info : Advanced Video Codec
Format profile : HighL4
Format settings : CABAC / 4 Ref Frames
Format settings, CABAC : Yes
Format settings, Reference frames : 4 frames
Codec ID : V_MPEG4/ISO/AVC
Duration : 1 h 58 min
Bit rate mode : Constant
Bit rate : 7 381 kb/s
Nominal bit rate : 10 000 kb/s
Width : 1 920 pixels
Height : 800 pixels
Display aspect ratio : 2.40:1
Frame rate mode : Constant
Frame rate : 23.976 (24000/1001) FPS
Color space : YUV
Chroma subsampling : 4:2:0
Bit depth : 8 bits
Scan type : Progressive
Bits/(PixelFrame) : 0.200
Stream size : 6.10 GiB (92)
Language : English
Default : Yes
Forced : No
Color range : Limited
Color primaries : BT.709
Transfer characteristics : BT.709
Matrix coefficients : BT.709

Audio
ID : 2
Format : E-AC-3
Format/Info : Enhanced AC-3
Commercial name : Dolby Digital Plus
Codec ID : A_EAC3
Duration : 1 h 58 min
Bit rate mode : Constant
Bit rate : 640 kb/s
Channel(s) : 6 channels
Channel layout : L R C LFE Ls Rs
Sampling rate : 48.0 kHz
Frame rate : 31.250 FPS (1536 SPF)
Compression mode : Lossy
Stream size : 542 MiB (8)
Language : English
Service kind : Complete Main
Default : Yes
Forced : No

Text
ID : 3
Format : UTF-8
Codec ID : S_TEXT/UTF8
Codec ID/Info : UTF-8 Plain Text
Duration : 1 h 50 min
Bit rate : 32 b/s
Count of elements : 1011
Stream size : 26.1 KiB (0)
Language : English
Default : Yes
Forced : No

Menu
00:00:00.000 : en:Studio Logo
00:00:30.000 : en:Scene 2
00:03:41.000 : en:Scene 3
00:09:58.000 : en:Scene 4
00:15:37.000 : en:Scene 5
00:19:51.000 : en:Scene 6
00:23:00.000 : en:Scene 7
00:30:30.000 : en:Scene 8
00:35:48.000 : en:Scene 9
00:42:04.000 : en:Scene 10
00:51:10.000 : en:Scene 11
00:58:46.000 : en:Scene 12
01:01:41.000 : en:Scene 13
01:09:53.000 : en:Scene 14
01:12:20.000 : en:Scene 15
01:16:41.000 : en:Scene 16
01:23:03.000 : en:Scene 17
01:25:51.000 : en:Scene 18
01:28:19.000 : en:Scene 19
01:31:39.000 : en:Scene 20
01:33:42.000 : en:Scene 21
01:37:24.000 : en:Scene 22
01:51:00.000 : en:Scene 23
01:53:36.000 : en:End Credits
Ocena użytkowników Help
Działa(0) | Fake(0) | Nie działa(0) | Wymagane hasło(0) | Wirus(0)
Statystyki seed/leech Ostatnio aktualizowane: 2021-03-27 13:46:44 [Aktualizuj]
Napisano: 15.05.2021 22:41
 
Nikt jeszcze nie skomentował tego torrenta... Może Ty to zrobisz?
Oświadczenie: Pliki prezentowane w katalogu nie znajdują się na serwerach wortalu. Użytkownicy zezwolili na ich udostępnienie. Administrator serwisu BitNova.info oraz właściciel serwera nie może ponieść konsekwencji za to co użytkownicy udostępniają i publikują. Pamiętaj! Nie możesz używać tego serwisu do rozpowszechniania lub ściągania materiałów do których nie masz odpowiednich praw lub licencji. Użytkownicy są odpowiedzialni za przestrzeganie tych zasad.

(Disclaimer: None files presented in the directory aren't hosted on servers vortal. Users allow their release. The administrator of site BitNova.info and owner of the server can not be held responsible for what its users post, or any other actions of its users. You may not use this site to distribute or download any material when you do not have the legal rights to do so. It is your own responsibility to adhere to these terms.)
» Zgłaszanie nadużyć / Abuse