Jedyny taki katalog polskich torrentów w sieci. Najlepsze torrenty w jednym miejscu.

Korzystanie ze strony jest darmowe. W przeciwieństwie do konkurencji nie kasujemy kont użytkowników bez ich wyraźnej prośby.


Torrent: Wonder Woman 1984 2020 [2160p.HMAX.WEBRip.x265.10bit.HDR.DDP5.1.Atmos] [ENG] [Sub.ENG]

Wonder Woman 1984 2020 [2160p.HMAX.WEBRip.x265.10bit.HDR.DDP5.1.Atmos] [ENG] [Sub.ENG] torrent
Dodał: Ishimura
31.12.2020 08:04
Kategoria: Fantasy

Rozmiar: 19.73 GB
Seed'ów: 372
Leecher'ów: 19
Pobrań: 230685

Kondycja:
 


» Komentarze [1]
» Obserwuj
» Zgłoś plik
Info
https://www.filmweb.pl/film/Wonder+Woman+1984-2020-792498
https://www.imdb.com/title/tt7126948/
Produkcja: Hiszpania, Kanada, Meksyk, USA, Wielka Brytania, Korea Południowa
Gatunek: Akcja, Sci-Fi
Premiera: 22 stycznia 2021 (Polska)
Scenariusz: Geoff Johns, Dave Callaham
Reżyserka: Patty Jenkins
Producenci: Gal Gadot, Patty Jenkins, Zack Snyder, Deborah Snyder, Geoff Johns, Charles Roven, Stephen Jones
Studia filmowe: DC Films, Atlas Entertainment, The Stone Quarry
Producenci wykonawczy: Geoff Johns, Walter Hamada, Richard Suckle, Rebecca Steel Roven

Opis
Wonder Woman przenosi się w czasie do lat 80. XX wieku. W swojej następnej wielkoekranowej przygodzie stawia czoło dwojgu zupełnie nowym przeciwnikom: Maxowi Lordowi i The Cheetah.

Obsada
Gal Gadot .... Diana Prince / Wonder Woman
Chris Pine .... Steve Trevor
Kristen Wiig .... Barbara Minerva / Cheetah
Pedro Pascal .... Maxwell Lord
Robin Wright .... Antiope
Connie Nielsen .... Hippolita
Lilly Aspell .... Młoda Diana
Amr Waked .... Emir Said Bin Abydos

Screenshot / Wideo
[img]http://mid.images.nitro.to/nitro.to_wonder_woman_1984_2020_2160p-hmax-webrip-x265-10bit-hdr-ddp5-1-atmos-tommy_eng_sub-eng.mid_5710__18158579.jpeg[/img]
[img]http://mid.images.nitro.to/nitro.to_wonder_woman_1984_2020_2160p-hmax-webrip-x265-10bit-hdr-ddp5-1-atmos-tommy_eng_sub-eng.mid_6488__18158580.jpeg[/img]
[img]http://mid.images.nitro.to/nitro.to_wonder_woman_1984_2020_2160p-hmax-webrip-x265-10bit-hdr-ddp5-1-atmos-tommy_eng_sub-eng.mid_6811__18158581.jpeg[/img]

https://www.youtube.com/watch?v=XW2E2Fnh52w

Dane Techniczne
MediaInfo
Video
ID : 1
Format : HEVC
Format/Info : High Efficiency Video Coding
Format profile : Main 10L5High
HDR format : SMPTE ST 2086, HDR10 compatible
Codec ID : V_MPEGH/ISO/HEVC
Duration : 2 h 31 min
Bit rate : 17.9 Mb/s
Width : 3 840 pixels
Height : 2 160 pixels
Display aspect ratio : 16:9
Frame rate mode : Constant
Frame rate : 23.976 (24000/1001) FPS
Color space : YUV
Chroma subsampling : 4:2:0
Bit depth : 10 bits
Bits/(PixelFrame) : 0.090
Stream size : 18.9 GiB (96)
Writing library : x265 3.4hy:[Linux][GCC 7.5.0][64 bit] 10bit
Encoding settings : cpuid=1111039 / frame-threads=6 / wpp / no-pmode / no-pme / no-psnr / no-ssim / log-level=2 / input-csp=1 / input-res=3840x2160 / interlace=0 / total-frames=0 / level-idc=0 / high-tier=1 / uhd-bd=0 / ref=4 / no-allow-non-conformance / repeat-headers / annexb / no-aud / no-hrd / info / hash=0 / no-temporal-layers / no-open-gop / min-keyint=48 / keyint=48 / gop-lookahead=0 / bframes=3 / b-adapt=2 / b-pyramid / bframe-bias=0 / rc-lookahead=20 / lookahead-slices=8 / scenecut=40 / hist-scenecut=0 / radl=0 / no-splice / no-intra-refresh / ctu=64 / min-cu-size=8 / no-rect / no-amp / max-tu-size=32 / tu-inter-depth=1 / tu-intra-depth=1 / limit-tu=0 / rdoq-level=0 / dynamic-rd=0.00 / no-ssim-rd / signhide / no-tskip / nr-intra=0 / nr-inter=0 / no-constrained-intra / strong-intra-smoothing / max-merge=3 / limit-refs=1 / no-limit-modes / me=1 / subme=2 / merange=57 / temporal-mvp / no-frame-dup / no-hme / weightp / no-weightb / no-analyze-src-pics / deblock=0:0 / sao / no-sao-non-deblock / rd=3 / selective-sao=4 / early-skip / rskip / no-fast-intra / no-tskip-fast / no-cu-lossless / b-intra / no-splitrd-skip / rdpenalty=0 / psy-rd=2.00 / psy-rdoq=0.00 / no-rd-refine / no-lossless / cbqpoffs=0 / crqpoffs=0 / rc=abr / bitrate=18000 / qcomp=0.60 / qpstep=4 / stats-write=0 / stats-read=2 / cplxblur=20.0 / qblur=0.5 / vbv-maxrate=27000 / vbv-bufsize=27000 / vbv-init=0.8 / ipratio=1.40 / pbratio=1.30 / aq-mode=2 / aq-strength=1.00 / cutree / zone-count=0 / no-strict-cbr / qg-size=32 / no-rc-grain / qpmax=69 / qpmin=0 / no-const-vbv / sar=1 / overscan=0 / videoformat=5 / range=0 / colorprim=9 / transfer=16 / colormatrix=9 / chromaloc=0 / display-window=0 / master-display=G(13250,34500)B(7500,3000)R(34000,16000)WP(15635,16450)L(10000000,1) / cll=596,200 / min-luma=0 / max-luma=1023 / log2-max-poc-lsb=8 / vui-timing-info / vui-hrd-info / no-concatenation / slices=1 / no-opt-qp-pps / no-opt-ref-list-length-pps / no-multi-pass-opt-rps / scenecut-bias=0.05 / hist-threshold=0.01 / no-opt-cu-delta-qp / no-aq-motion / hdr10 / no-hdr10-opt / no-dhdr10-opt / no-idr-recovery-sei / analysis-reuse-level=0 / analysis-save-reuse-level=0 / analysis-load-reuse-level=0 / scale-factor=0 / refine-intra=0 / refine-inter=0 / refine-mv=1 / refine-ctu-distortion=0 / no-limit-sao / ctu-info=0 / no-lowpass-dct / refine-analysis-type=0 / copy-pic=1 / max-ausize-factor=1.0 / no-dynamic-refine / no-single-sei / no-hevc-aq / no-svt / no-field / qp-adaptation-range=1.00 / no-scenecut-aware-qpconformance-window-offsets / right=0 / bottom=0 / decoder-max-rate=0
Default : Yes
Forced : No
Color range : Limited
Color primaries : BT.2020
Transfer characteristics : PQ
Matrix coefficients : BT.2020 non-constant
Mastering display color primaries : Display P3
Mastering display luminance : min: 0.0001 cd/m2, max: 1000 cd/m2
Maximum Content Light Level : 596 cd/m2
Maximum Frame-Average Light Level : 200 cd/m2

Audio
ID : 2
Format : E-AC-3 JOC
Format/Info : Enhanced AC-3 with Joint Object Coding
Commercial name : Dolby Digital Plus with Dolby Atmos
Codec ID : A_EAC3
Duration : 2 h 31 min
Bit rate mode : Constant
Bit rate : 768 kb/s
Channel(s) : 6 channels
Channel layout : L R C LFE Ls Rs
Sampling rate : 48.0 kHz
Frame rate : 31.250 FPS (1536 SPF)
Compression mode : Lossy
Stream size : 830 MiB (4)
Title : English
Language : English
Service kind : Complete Main
Default : Yes
Forced : No
Complexity index : 16
Number of dynamic objects : 15
Bed channel count : 1 channel
Bed channel configuration : LFE

Text #1
ID : 3
Format : UTF-8
Codec ID : S_TEXT/UTF8
Codec ID/Info : UTF-8 Plain Text
Duration : 2 h 26 min
Bit rate : 52 b/s
Count of elements : 3172
Stream size : 56.5 KiB (0)
Title : English [SDH]
Language : English
Default : No
Forced : No

Text #2
ID : 4
Format : UTF-8
Codec ID : S_TEXT/UTF8
Codec ID/Info : UTF-8 Plain Text
Duration : 2 h 27 min
Bit rate : 47 b/s
Count of elements : 2933
Stream size : 50.9 KiB (0)
Title : Spanish [SDH]
Language : Spanish
Default : No
Forced : No
Ocena użytkowników Help
Działa(0) | Fake(0) | Nie działa(0) | Wymagane hasło(0) | Wirus(0)
Statystyki seed/leech Ostatnio aktualizowane: 2021-02-21 09:59:55 [Aktualizuj]
bl4d3krak
bl4d3krak
Napisano: 2021-01-01 19:19
 
bardzo słaby... :(
Oświadczenie: Pliki prezentowane w katalogu nie znajdują się na serwerach wortalu. Użytkownicy zezwolili na ich udostępnienie. Administrator serwisu BitNova.info oraz właściciel serwera nie może ponieść konsekwencji za to co użytkownicy udostępniają i publikują. Pamiętaj! Nie możesz używać tego serwisu do rozpowszechniania lub ściągania materiałów do których nie masz odpowiednich praw lub licencji. Użytkownicy są odpowiedzialni za przestrzeganie tych zasad.

(Disclaimer: None files presented in the directory aren't hosted on servers vortal. Users allow their release. The administrator of site BitNova.info and owner of the server can not be held responsible for what its users post, or any other actions of its users. You may not use this site to distribute or download any material when you do not have the legal rights to do so. It is your own responsibility to adhere to these terms.)
» Zgłaszanie nadużyć / Abuse