Jedyny taki katalog polskich torrentów w sieci. Najlepsze torrenty w jednym miejscu.

Korzystanie ze strony jest darmowe. W przeciwieństwie do konkurencji nie kasujemy kont użytkowników bez ich wyraźnej prośby.


Torrent: Kraina Lodu - Frozen / Kraina Lodu 2 - Frozen II (2013 - 2019) [BDRip] [1080p] [H 264] [AC3 - 5 1] [Dubbing PL]

 Kraina Lodu - Frozen /  Kraina Lodu 2 - Frozen II  (2013 - 2019) [BDRip] [1080p] [H 264] [AC3 - 5 1] [Dubbing PL]  torrent
Dodał: Ishimura
11.12.2020 06:32
Kategoria: Filmy

Rozmiar: 8.88 GB
Seed'ów: 2
Leecher'ów: 1
Pobrań: 10

Kondycja:
 


» Komentarze [0]
» Obserwuj
» Zgłoś plik
Pobrałeś/aś podziękuj sedując . Daj szanse innym pobrać

Tytuł: Kraina Lodu - Frozen / Kraina Lodu 2 - Frozen II
Produkcja: USA
Gatunek Animacja, Fantasy, Przygodowy, Baśń, Musical
Premiera Polska: 29 listopada (2013)/ 22 listopada (2019)
Scenariusz: Jennifer Lee, Allison Schroeder
Reżyseria: Chris Buck, Jennifer Lee
Czas trwania: 102 / 103 minuty

Kraina Lodu

https://www.filmweb.pl/film/Kraina+lodu-2013-651932
https://www.imdb.com/title/tt2294629/

Kraina Lodu 2

https://www.filmweb.pl/film/Kraina+lodu+II-2019-736723
https://www.imdb.com/title/tt4520988/

Kraina Lodu

Królestwo Arendelle spowiła wieczna zima. Jest to efekt czarów Królowej Śniegu, Elsy, która nie potrafi kontrolować swoich niezwykłych mocy. Na ratunek bajkowej krainie wyrusza Anna, młodsza siostra władczyni. W wyprawie towarzyszą jej mieszkaniec gór Kristoff, renifer Sven i pocieszny bałwanek Olaf. W czasie pełnej niebezpieczeństw podróży bohaterowie przeżyją wielką zamieć, staną oko w oko z wilkami i spotkają magiczne trolle. Ale czy uda im się odnaleźć nieobliczalną Elsę i uwolnić królestwo spod panowania zimy?

Kraina Lodu 2

Dlaczego Elsa urodziła się obdarzona magiczną mocą? Odpowiedź na to pytanie nie daje jej spokoju i… zagraża całemu królestwu Dlatego razem z Anną, Kristoffem, Olafem i Svenem wyruszają w niebezpieczną i niezwykłą podróż. Czy ta wyprawa odmieni życie bohaterów? Czego się podczas niej dowiedzą? Jakie przygody przeżyją? W oscarowej Krainie lodu Elsa bała się, że jej moc jest zbyt potężna i może doprowadzić do katastrofy. W drugiej części musi mieć nadzieję, że ta moc będzie wystarczająca, aby przezwyciężyć problemy, które napotka. Czy tak się stanie?

DUBBING PL

Kraina Lodu 1-2

Anna Cieślak .... Anna (dialogi)
Magdalena Wasylik .... Anna (śpiew)
Lidia Sadowa .... Elsa (dialogi)
Katarzyna Łaska .... Elsa (śpiew)
Paweł Ciołkosz .... Kristoff
Grzegorz Kwiecień .... Hans (dialogi)
Marcin Jajkiewicz .... Hans (śpiew)
Miłogost Reczek .... Król
Jacek Król .... Oaken
Janusz R. Nowicki .... Baltazar
Stefan Knothe .... Kai
Czesław Mozil .... Olaf
Marcin Przybylski .... Generał Mattias
Agnieszka Przekupień .... Królowa Iduna
Arkadiusz Janiczek .... Król Agnarr
Marzena Trybała .... Yelana
Mateusz Dopieralski .... Ryder
Ewa Kłosowicz .... Haniamaja
Andrzej Seweryn .... Król Runeard
Wojciech Paszkowski .... Wódz Northuldra
Katarzyna Mogielnicka .... Mała Anna
Janina Dowbor .... Mała Elsa
AURORA .... Głos
Krzysztof Dracz .... Arcyksiążę von Szwądękaunt
Grzegorz Kwiecień .... Hans

Przykładowe Dane Techniczne

Format : Matroska
Format version : Version 2
File size : 4.53 GiB
Duration : 1 h 42 min
Overall bit rate mode : Variable
Overall bit rate : 6 345 kb/s
Movie name : Frozen (2013)
Encoded date : UTC 2020-12-05 14:11:11
Writing application : DVDFab 11.0.8.5
Writing library : libebml v1.3.4 + libmatroska v1.4.5

Video
ID : 1
Format : AVC
Format/Info : Advanced Video Codec
Format profile : [url=/cdn-cgi/l/email-protection][email protected][/url]
Format settings : CABAC / 2 Ref Frames
Format settings, CABAC : Yes
Format settings, Reference : 2 frames
Format settings, GOP : M=3, N=24
Codec ID : V_MPEG4/ISO/AVC
Duration : 1 h 42 min
Bit rate mode : Variable
Bit rate : 5 898 kb/s
Maximum bit rate : 8 866 kb/s
Width : 1 920 pixels
Height : 856 pixels
Display aspect ratio : 2.25:1
Frame rate mode : Constant
Frame rate : 23.976 (24000/1001) FPS
Color space : YUV
Chroma subsampling : 4:2:0
Bit depth : 8 bits
Scan type : Progressive
Bits/(PixelFrame) : 0.150
Stream size : 4.21 GiB (93)
Default : Yes
Forced : No

Audio
ID : 2
Format : AC-3
Format/Info : Audio Coding 3
Commercial name : Dolby Digital
Codec ID : A_AC3
Duration : 1 h 42 min
Bit rate mode : Constant
Bit rate : 448 kb/s
Channel(s) : 6 channels
Channel layout : L R C LFE Ls Rs
Sampling rate : 48.0 kHz
Frame rate : 31.250 FPS (1536 SPF)
Compression mode : Lossy
Stream size : 328 MiB (7)
Language : Polish
Service kind : Complete Main
Default : Yes
Forced : No
Ocena użytkowników Help
Działa(0) | Fake(0) | Nie działa(0) | Wymagane hasło(0) | Wirus(0)
Statystyki seed/leech Ostatnio aktualizowane: 2021-04-17 19:04:49 [Aktualizuj]
Napisano: 20.04.2021 16:07
 
Nikt jeszcze nie skomentował tego torrenta... Może Ty to zrobisz?
Oświadczenie: Pliki prezentowane w katalogu nie znajdują się na serwerach wortalu. Użytkownicy zezwolili na ich udostępnienie. Administrator serwisu BitNova.info oraz właściciel serwera nie może ponieść konsekwencji za to co użytkownicy udostępniają i publikują. Pamiętaj! Nie możesz używać tego serwisu do rozpowszechniania lub ściągania materiałów do których nie masz odpowiednich praw lub licencji. Użytkownicy są odpowiedzialni za przestrzeganie tych zasad.

(Disclaimer: None files presented in the directory aren't hosted on servers vortal. Users allow their release. The administrator of site BitNova.info and owner of the server can not be held responsible for what its users post, or any other actions of its users. You may not use this site to distribute or download any material when you do not have the legal rights to do so. It is your own responsibility to adhere to these terms.)
» Zgłaszanie nadużyć / Abuse