Jedyny taki katalog polskich torrentów w sieci. Najlepsze torrenty w jednym miejscu.

Korzystanie ze strony jest darmowe. W przeciwieństwie do konkurencji nie kasujemy kont użytkowników bez ich wyraźnej prośby.


Torrent: Wielkie ucieczki PRL - 10 odcinków [TVRip] v62

Wielkie ucieczki PRL - 10 odcinków [TVRip] v62 torrent
Dodał: viola62
25.11.2020 18:11
Kategoria: Seriale dokumentalne

Rozmiar: 4.87 GB
Seed'ów: 1
Leecher'ów: 2
Pobrań: 33

Kondycja:
 


» Komentarze [0]
» Obserwuj
» Zgłoś plik
...( Info )...

Wielkie ucieczki – polski serial dokumentalno-fabularny, emitowany od 6 kwietnia 2006 w czwartki o 21:30 w TVN. Serial prowadzony jest przez dziennikarza TVN, Tomasza Sianeckiego, reżyserami filmu są Grzegorz Madej, Wojciech Bockenheim i Radosław Dunaszewski.

Każdy z odcinków odpowiada autentyczną historię ludzi, którzy w czasach PRL zdecydowali się na ucieczkę z kraju. Odcinek podzielony jest na dwie części: dokumentalną, w której prowadzący spotyka się z bohaterami oraz fabularną, w której losy przedstawione są w postaci filmu. Zdjęcia do serialu kręcone były w wielu zakątkach Polski i świata. Wielu uciekinierów zostało zaocznie skazanych przez sądy PRL na długoletnie kary więzienia lub nawet śmierci, często skazywane były także rodziny uciekinierów. Po ucieczkach emigrowali oni jednak do krajów zachodnich, głównie Stanów Zjednoczonych, Kanady lub Australii. Część znalezionych archiwalnych materiałów została przekazana do IPN.

...( TrackList )...

odc. 1: Jarecki
odc. 2: Tempelhof - brama do wolności
odc. 3: Bunt na Żurawiu
odc. 4: Lot 747
odc. 5: Żaglówką przez Bałtyk
odc. 6: Potrójny agent
odc. 7: Kukułka
odc. 8: Przerwany lot
odc. 9: Lot do wolności
odc. 10: Kurier

...( Dane Techniczne )...

Jakość TVRIP, rozdzielczość różna.

Format : AVI
Format/Info : Audio Video Interleave
File size : 350 MiB
Duration : 53 min 31 s
Overall bit rate mode : Variable
Overall bit rate : 914 kb/s
Writing application : VirtualDubMod 1.5.10.1 (build 2439/release)
Writing library : VirtualDubMod build 2439/release

Video
ID : 0
Format : MPEG-4 Visual
Format profile : Advanced Simple@L5
Format settings : BVOP1
Format settings, BVOP : 1
Format settings, QPel : No
Format settings, GMC : No warppoints
Format settings, Matrix : Default (H.263)
Codec ID : XVID
Codec ID/Hint : XviD
Duration : 53 min 31 s
Bit rate : 808 kb/s
Width : 576 pixels
Height : 320 pixels
Display aspect ratio : 16:9
Frame rate : 25.000 FPS
Color space : YUV
Chroma subsampling : 4:2:0
Bit depth : 8 bits
Scan type : Progressive
Compression mode : Lossy
Bits/(Pixel*Frame) : 0.175
Stream size : 309 MiB (88%)
Writing library : XviD 1.1.0 (UTC 2005-11-22)

Audio
ID : 1
Format : MPEG Audio
Format version : Version 1
Format profile : Layer 3
Format settings : Joint stereo / MS Stereo
Codec ID : 55
Codec ID/Hint : MP3
Duration : 53 min 31 s
Bit rate mode : Variable
Bit rate : 91.0 kb/s
Channel(s) : 2 channels
Sampling rate : 44.1 kHz
Frame rate : 38.281 FPS (1152 SPF)
Compression mode : Lossy
Stream size : 35.9 MiB (10%)
Alignment : Aligned on interleaves
Interleave, duration : 26 ms (0.65 video frame)
Interleave, preload duratio : 602 ms
Writing library : LAME3.96r
Encoding settings : -m j -V 4 -q 3 -lowpass 15.3 --abr 91



Ocena użytkowników Help
Działa(0) | Fake(0) | Nie działa(0) | Wymagane hasło(0) | Wirus(0)
Statystyki seed/leech Ostatnio aktualizowane: 2020-11-30 16:00:39 [Aktualizuj]
Napisano: 20.01.2021 19:49
 
Nikt jeszcze nie skomentował tego torrenta... Może Ty to zrobisz?
Oświadczenie: Pliki prezentowane w katalogu nie znajdują się na serwerach wortalu. Użytkownicy zezwolili na ich udostępnienie. Administrator serwisu BitNova.info oraz właściciel serwera nie może ponieść konsekwencji za to co użytkownicy udostępniają i publikują. Pamiętaj! Nie możesz używać tego serwisu do rozpowszechniania lub ściągania materiałów do których nie masz odpowiednich praw lub licencji. Użytkownicy są odpowiedzialni za przestrzeganie tych zasad.

(Disclaimer: None files presented in the directory aren't hosted on servers vortal. Users allow their release. The administrator of site BitNova.info and owner of the server can not be held responsible for what its users post, or any other actions of its users. You may not use this site to distribute or download any material when you do not have the legal rights to do so. It is your own responsibility to adhere to these terms.)
» Zgłaszanie nadużyć / Abuse