Jedyny taki katalog polskich torrentów w sieci. Najlepsze torrenty w jednym miejscu.

Korzystanie ze strony jest darmowe. W przeciwieństwie do konkurencji nie kasujemy kont użytkowników bez ich wyraźnej prośby.


Torrent: The Mandalorian [2019] [S01] [COMPLETE] [2160p.DSNP.WEBRip.x265.10bit.HDR.DDP5.1.Atmos-MIXED] [ENG] [Sub.Multi: Napisy PL]

The Mandalorian [2019] [S01] [COMPLETE] [2160p.DSNP.WEBRip.x265.10bit.HDR.DDP5.1.Atmos-MIXED] [ENG] [Sub.Multi: Napisy PL] torrent
Dodał: Ishimura
06.11.2020 02:48
Kategoria: Seriale obyczajowe

Rozmiar: 35.49 GB
Seed'ów: 13
Leecher'ów: 4
Pobrań: 1686

Kondycja:
 


» Komentarze [0]
» Obserwuj
» Zgłoś plik
Info
Tytuł: The Mandalorian / Sezon 1 [2019] [Epizodów: 8]
Gatunek: Akcja, Przygodowy, Sci-Fi, Fantasy
Produkcja: USA
Stacja telewizyjna: Disney+
Data premiery serialu: 12.11.2019 - Świat
Czas trwania odcinka około 38 min.
Twórcy: Jon Favreau
https://www.filmweb.pl/serial/The+Mandalorian-2019-813197
https://www.imdb.com/title/tt8111088/
https://fdb.pl/film/864916-the-mandalorian
https://naekranie.pl/seriale/the-mandalorian
https://www.youtube.com/watch?v=SA0aN2FtibA

Opis
Po historiach Jango i Boba Fettów w uniwersum Gwiezdnych Wojen pojawia się kolejny wojownik.
The Mandalorian jest osadzony po upadku Imperium i przed ujawnieniem się Najwyższego
Porządku. Jest to opowieść o samotnym rewolwerowcu osadzona w odległych zakątkach galaktyki
daleko od wpływów Nowej Republiki?

Obsada
User image

Pedro Pascal ... The Mandalorian
Gina Carano ... Cara Dune
Nick Nolte ... Kuill
Giancarlo Esposito ... Mof Gideon
Werner Herzog ... The Client
Carl Weathers ... Greef Carga
Emily Swallow ... The Armorer
Omid Abtahi ... Dr. Pershing

Dane Techniczne
MediaInfo
Video
ID : 1
Format : HEVC
Format/Info : High Efficiency Video Coding
Format profile : Main 10L5High
Codec ID : V_MPEGH/ISO/HEVC
Duration : 48 min 42 s
Bit rate : 15.3 Mb/s
Width : 3 840 pixels
Height : 2 160 pixels
Display aspect ratio : 16:9
Frame rate mode : Constant
Frame rate : 23.976 (24000/1001) FPS
Color space : YUV
Chroma subsampling : 4:2:0
Bit depth : 10 bits
Bits/(PixelFrame) : 0.077
Stream size : 5.21 GiB (95)
Language : English
Default : Yes
Forced : No
Color range : Limited
Color primaries : BT.2020
Transfer characteristics : PQ
Matrix coefficients : BT.2020 non-constant

Audio
ID : 2
Format : E-AC-3 JOC
Format/Info : Enhanced AC-3 with Joint Object Coding
Commercial name : Dolby Digital Plus with Dolby Atmos
Codec ID : A_EAC3
Duration : 48 min 42 s
Bit rate mode : Constant
Bit rate : 768 kb/s
Channel(s) : 6 channels
Channel layout : L R C LFE Ls Rs
Sampling rate : 48.0 kHz
Frame rate : 31.250 FPS (1536 SPF)
Compression mode : Lossy
Stream size : 259 MiB (5)
Language : English
Service kind : Complete Main
Default : Yes
Forced : No
Complexity index : 16
Number of dynamic objects : 15
Bed channel count : 1 channel
Bed channel configuration : LFE

Text #1
ID : 3
Format : UTF-8
Codec ID : S_TEXT/UTF8
Codec ID/Info : UTF-8 Plain Text
Duration : 43 min 17 s
Bit rate : 58 b/s
Count of elements : 545
Stream size : 18.6 KiB (0)
Title : English (SDH)
Language : English
Default : No
Forced : No

Text #2
ID : 4
Format : UTF-8
Codec ID : S_TEXT/UTF8
Codec ID/Info : UTF-8 Plain Text
Duration : 46 min 16 s
Bit rate : 38 b/s
Count of elements : 337
Stream size : 12.9 KiB (0)
Title : Danish
Language : Danish
Default : No
Forced : No

Text #3
ID : 5
Format : UTF-8
Codec ID : S_TEXT/UTF8
Codec ID/Info : UTF-8 Plain Text
Duration : 46 min 16 s
Bit rate : 39 b/s
Count of elements : 437
Stream size : 13.3 KiB (0)
Title : German
Language : German
Default : No
Forced : No

Text #4
ID : 6
Format : UTF-8
Codec ID : S_TEXT/UTF8
Codec ID/Info : UTF-8 Plain Text
Duration : 46 min 16 s
Bit rate : 36 b/s
Count of elements : 430
Stream size : 12.5 KiB (0)
Title : Spanish (Latin American)
Language : Spanish
Default : No
Forced : No

Text #5
ID : 7
Format : UTF-8
Codec ID : S_TEXT/UTF8
Codec ID/Info : UTF-8 Plain Text
Duration : 46 min 16 s
Bit rate : 36 b/s
Count of elements : 430
Stream size : 12.4 KiB (0)
Title : Spanish
Language : Spanish
Default : No
Forced : No

Text #6
ID : 8
Format : UTF-8
Codec ID : S_TEXT/UTF8
Codec ID/Info : UTF-8 Plain Text
Duration : 46 min 16 s
Bit rate : 34 b/s
Count of elements : 429
Stream size : 11.8 KiB (0)
Title : Finnish
Language : Finnish
Default : No
Forced : No

Text #7
ID : 9
Format : UTF-8
Codec ID : S_TEXT/UTF8
Codec ID/Info : UTF-8 Plain Text
Duration : 46 min 16 s
Bit rate : 35 b/s
Count of elements : 423
Stream size : 12.1 KiB (0)
Title : French
Language : French
Default : No
Forced : No

Text #8
ID : 10
Format : UTF-8
Codec ID : S_TEXT/UTF8
Codec ID/Info : UTF-8 Plain Text
Duration : 46 min 16 s
Bit rate : 37 b/s
Count of elements : 430
Stream size : 12.8 KiB (0)
Title : Italian
Language : Italian
Default : No
Forced : No

Text #9
ID : 11
Format : UTF-8
Codec ID : S_TEXT/UTF8
Codec ID/Info : UTF-8 Plain Text
Duration : 46 min 16 s
Bit rate : 41 b/s
Count of elements : 358
Stream size : 14.1 KiB (0)
Title : Dutch
Language : Dutch
Default : No
Forced : No

Text #10
ID : 12
Format : UTF-8
Codec ID : S_TEXT/UTF8
Codec ID/Info : UTF-8 Plain Text
Duration : 46 min 16 s
Bit rate : 34 b/s
Count of elements : 430
Stream size : 11.6 KiB (0)
Title : Norwegian
Language : Norwegian
Default : No
Forced : No

Text #11
ID : 13
Format : UTF-8
Codec ID : S_TEXT/UTF8
Codec ID/Info : UTF-8 Plain Text
Duration : 46 min 16 s
Bit rate : 37 b/s
Count of elements : 429
Stream size : 12.8 KiB (0)
Title : Polish
Language : Polish
Default : No
Forced : No

Text #12
ID : 14
Format : UTF-8
Codec ID : S_TEXT/UTF8
Codec ID/Info : UTF-8 Plain Text
Duration : 46 min 16 s
Bit rate : 40 b/s
Count of elements : 430
Stream size : 13.8 KiB (0)
Title : Portuguese (Brazilian)
Language : Portuguese
Default : No
Forced : No

Text #13
ID : 15
Format : UTF-8
Codec ID : S_TEXT/UTF8
Codec ID/Info : UTF-8 Plain Text
Duration : 46 min 16 s
Bit rate : 40 b/s
Count of elements : 428
Stream size : 13.7 KiB (0)
Title : Portuguese
Language : Portuguese
Default : No
Forced : No

Text #14
ID : 16
Format : UTF-8
Codec ID : S_TEXT/UTF8
Codec ID/Info : UTF-8 Plain Text
Duration : 46 min 16 s
Bit rate : 40 b/s
Count of elements : 336
Stream size : 13.7 KiB (0)
Title : Swedish
Language : Swedish
Default : No
Forced : No

Screenshot / Wideo
Ocena użytkowników Help
Działa(0) | Fake(0) | Nie działa(0) | Wymagane hasło(0) | Wirus(0)
Statystyki seed/leech Ostatnio aktualizowane: 2020-12-03 16:27:32 [Aktualizuj]
Napisano: 05.12.2020 04:19
 
Nikt jeszcze nie skomentował tego torrenta... Może Ty to zrobisz?
Oświadczenie: Pliki prezentowane w katalogu nie znajdują się na serwerach wortalu. Użytkownicy zezwolili na ich udostępnienie. Administrator serwisu BitNova.info oraz właściciel serwera nie może ponieść konsekwencji za to co użytkownicy udostępniają i publikują. Pamiętaj! Nie możesz używać tego serwisu do rozpowszechniania lub ściągania materiałów do których nie masz odpowiednich praw lub licencji. Użytkownicy są odpowiedzialni za przestrzeganie tych zasad.

(Disclaimer: None files presented in the directory aren't hosted on servers vortal. Users allow their release. The administrator of site BitNova.info and owner of the server can not be held responsible for what its users post, or any other actions of its users. You may not use this site to distribute or download any material when you do not have the legal rights to do so. It is your own responsibility to adhere to these terms.)
» Zgłaszanie nadużyć / Abuse