Jedyny taki katalog polskich torrentów w sieci. Najlepsze torrenty w jednym miejscu.

Korzystanie ze strony jest darmowe. W przeciwieństwie do konkurencji nie kasujemy kont użytkowników bez ich wyraźnej prośby.


Torrent: Rigmar Mix Chris Rea 2 of 2 Video[mkv] v62

Rigmar Mix Chris Rea 2 of 2 Video[mkv] v62 torrent
Dodał: viola62
24.09.2020 19:31
Kategoria: Teledyski

Rozmiar: 1.74 GB
Seed'ów: 1
Leecher'ów: 0
Pobrań: 0

Kondycja:
 


» Komentarze [0]
» Obserwuj
» Zgłoś plik
...( TrackList )...

Chris Rea - Road To Hell [Video] (3:59)
Chris Rea - Tennis (Performance Version) [Video] (3:33)
Chris Rea - Working On It [Video] (4:15)
Chris Reece And Nadia Ali - The Notice [Video] (3:24)
Christina Aguilera - Ain't No Other Man (4:52)
Christina Aguilera - Beautiful [Video] (3:54)
Christina Aguilera - Candy Man [Video] (3:11)
Christina Aguilera - Change (Lyric Video) [Video] (3:02)

...( Dane Techniczne )...

Format : MPEG-4
Format profile : Base Media / Version 2
Codec ID : mp42 (mp42)
File size : 1.74 GiB
Duration : 30 min 0 s
Overall bit rate : 8 288 kb/s
Codirector : codirector
Production studio : studio
ContentType : Unknown Type
Encoded date : UTC 2020-09-17 13:39:55
Tagged date : UTC 2020-09-17 13:39:55

Video
ID : 1
Format : AVC
Format/Info : Advanced Video Codec
Format profile : High@L4
Format settings : CABAC / 3 Ref Frames
Format settings, CABAC : Yes
Format settings, Reference : 3 frames
Format settings, GOP : M=1, N=30
Muxing mode : Container profile=High@5.1
Codec ID : avc1
Codec ID/Info : Advanced Video Coding
Duration : 30 min 0 s
Bit rate : 8 079 kb/s
Width : 1 920 pixels
Height : 1 080 pixels
Display aspect ratio : 16:9
Frame rate mode : Constant
Frame rate : 25.000 FPS
Color space : YUV
Chroma subsampling : 4:2:0
Bit depth : 8 bits
Scan type : Progressive
Bits/(Pixel*Frame) : 0.156
Stream size : 1.69 GiB (97%)
Language : English
Color range : Limited
Color primaries : BT.709
Transfer characteristics : BT.709
Matrix coefficients : BT.709
Codec configuration box : avcC

Audio
ID : 2
Format : AAC LC
Format/Info : Advanced Audio Codec Low Complexity
Codec ID : mp4a-40-2
Duration : 30 min 0 s
Bit rate mode : Constant
Bit rate : 192 kb/s
Channel(s) : 2 channels
Channel layout : L R
Sampling rate : 44.1 kHz
Frame rate : 43.066 FPS (1024 SPF)
Compression mode : Lossy
Stream size : 41.2 MiB (2%)
Title : Stereo
Language : English
Default : Yes
Alternate group : 1



Ocena użytkowników Help
Działa(0) | Fake(0) | Nie działa(0) | Wymagane hasło(0) | Wirus(0)
Statystyki seed/leech Ostatnio aktualizowane: 2020-09-24 19:31:16 [Aktualizuj]
Napisano: 02.03.2021 06:21
 
Nikt jeszcze nie skomentował tego torrenta... Może Ty to zrobisz?
Oświadczenie: Pliki prezentowane w katalogu nie znajdują się na serwerach wortalu. Użytkownicy zezwolili na ich udostępnienie. Administrator serwisu BitNova.info oraz właściciel serwera nie może ponieść konsekwencji za to co użytkownicy udostępniają i publikują. Pamiętaj! Nie możesz używać tego serwisu do rozpowszechniania lub ściągania materiałów do których nie masz odpowiednich praw lub licencji. Użytkownicy są odpowiedzialni za przestrzeganie tych zasad.

(Disclaimer: None files presented in the directory aren't hosted on servers vortal. Users allow their release. The administrator of site BitNova.info and owner of the server can not be held responsible for what its users post, or any other actions of its users. You may not use this site to distribute or download any material when you do not have the legal rights to do so. It is your own responsibility to adhere to these terms.)
» Zgłaszanie nadużyć / Abuse