Jedyny taki katalog polskich torrentów w sieci. Najlepsze torrenty w jednym miejscu.

Korzystanie ze strony jest darmowe. W przeciwieństwie do konkurencji nie kasujemy kont użytkowników bez ich wyraźnej prośby.

Torrent: Upload 2020 [S01] [COMPLETE] [720p.AMZN.WEB.DDP5.1.x264-NTb] [ENG] [Sub.Multi: Napisy PL]

Upload 2020 [S01] [COMPLETE] [720p.AMZN.WEB.DDP5.1.x264-NTb] [ENG] [Sub.Multi: Napisy PL] torrent
Dodał: Ishimura
15.09.2020 10:27
Kategoria: Seriale obyczajowe

Rozmiar: 12.70 GB
Seed'ów: 0
Leecher'ów: 0
Pobrań: 0

Kondycja:
 


» Komentarze [0]
» Obserwuj
» Zgłoś plik
[img]http://mid.images.nitro.to/nitro.to_upload_2020_s01_complete_720p-amzn-web-ddp5-1-x264-ntb_eng_sub-multi_napisy_pl.mid_4846__18054994.jpeg[/img]

Info
https://www.imdb.com/title/tt7826376/
https://www.tvmaze.com/shows/31732/upload
Tytuł: Upload / Sezon 01 [2020] [Epizodów:10]
Gatunek: Sci-Fi
Produkcja: USA
Stacja telewizyjna: Amazon Prime Video
Data premiery serialu: 01.05.2020 - Świat
Czas trwania odcinka około 45 min.
Twórcy: Greg Daniels

Opis
Po przedwczesnej śmierci człowiek dostaje prawo decydowania, jak będzie wyglądało jego życie pozagrobowe.
Rok 2033. Umierających można "zuploadować" do wirtualnych hoteli prowadzonych przez sześć firm technologicznych. Nora mieszka w Brooklynie i pracuje w dziale obsługi klienta luksusowych cyfrowych zaświatów "Lakeview". Gdy imprezowicz i programista z LA, Nathan, ginie w wypadku autonomicznego samochodu, jego dziewczyna uploaduje go własnie tam.

Obsada
Robbie Amell .... Nathan Brown
Andy Allo .... Nora Antony
Zainab Johnson .... Aleesha
Allegra Edwards .... Ingrid Kannerman
Kevin Bigley .... Luke
Andrea Rosen .... Lucy
Owen Daniels .... Technik od sztucznej inteligencji
Jordan Johnson-Hinds .... Jamie

Dane Techniczne
MediaInfo
Video
ID : 1
Format : AVC
Format/Info : Advanced Video Codec
Format profile : [email protected]
Format settings : CABAC / 9 Ref Frames
Format settings, CABAC : Yes
Format settings, Reference frames : 9 frames
Codec ID : V_MPEG4/ISO/AVC
Duration : 45 min 56 s
Bit rate : 5 398 kb/s
Width : 1 280 pixels
Height : 720 pixels
Display aspect ratio : 16:9
Frame rate mode : Constant
Frame rate : 23.976 (24000/1001) FPS
Color space : YUV
Chroma subsampling : 4:2:0
Bit depth : 8 bits
Scan type : Progressive
Bits/(PixelFrame) : 0.244
Stream size : 1.73 GiB (89)
Writing library : x264 core 159 r2991+50 29469ee t_mod_New [[email protected] X86_64]
Encoding settings : cabac=1 / ref=9 / deblock=1:-3:-3 / analyse=0x3:0x133 / me=umh / subme=10 / psy=1 / fade_compensate=0.00 / psy_rd=1.00:0.15 / mixed_ref=1 / me_range=48 / chroma_me=1 / trellis=2 / 8x8dct=1 / cqm=0 / deadzone=21,11 / fast_pskip=0 / chroma_qp_offset=-3 / threads=12 / lookahead_threads=2 / sliced_threads=0 / nr=0 / decimate=0 / interlaced=0 / bluray_compat=0 / constrained_intra=0 / fgo=0 / bframes=8 / b_pyramid=2 / b_adapt=2 / b_bias=0 / direct=3 / weightb=1 / open_gop=0 / weightp=2 / keyint=250 / keyint_min=23 / scenecut=40 / intra_refresh=0 / rc=crf / mbtree=0 / crf=16.0000 / qcomp=0.60 / qpmin=0:0:0 / qpmax=69:69:69 / qpstep=4 / ip_ratio=1.30 / pb_ratio=1.20 / aq=3:0.80 / aq-sensitivity=10.00 / aq-factor=1.00:1.00:1.00 / aq2=0 / aq3=0
Default : Yes
Forced : No

Audio
ID : 2
Format : E-AC-3
Format/Info : Enhanced AC-3
Commercial name : Dolby Digital Plus
Codec ID : A_EAC3
Duration : 45 min 56 s
Bit rate mode : Constant
Bit rate : 640 kb/s
Channel(s) : 6 channels
Channel layout : L R C LFE Ls Rs
Sampling rate : 48.0 kHz
Frame rate : 31.250 FPS (1536 SPF)
Compression mode : Lossy
Stream size : 210 MiB (11)
Language : English
Service kind : Complete Main
Default : Yes
Forced : No

Text #1
ID : 3
Format : UTF-8
Codec ID : S_TEXT/UTF8
Codec ID/Info : UTF-8 Plain Text
Duration : 43 min 48 s
Bit rate : 82 b/s
Count of elements : 965
Stream size : 26.5 KiB (0)
Title : SDH
Language : English
Default : No
Forced : No

Text #2
ID : 4
Format : UTF-8
Codec ID : S_TEXT/UTF8
Codec ID/Info : UTF-8 Plain Text
Duration : 43 min 29 s
Bit rate : 121 b/s
Count of elements : 738
Stream size : 38.7 KiB (0)
Language : Arabic
Default : No
Forced : No

Text #3
ID : 5
Format : UTF-8
Codec ID : S_TEXT/UTF8
Codec ID/Info : UTF-8 Plain Text
Duration : 43 min 29 s
Bit rate : 69 b/s
Count of elements : 732
Stream size : 22.3 KiB (0)
Language : Danish
Default : No
Forced : No

Text #4
ID : 6
Format : UTF-8
Codec ID : S_TEXT/UTF8
Codec ID/Info : UTF-8 Plain Text
Duration : 43 min 29 s
Bit rate : 66 b/s
Count of elements : 512
Stream size : 21.1 KiB (0)
Language : German
Default : No
Forced : No

Text #5
ID : 7
Format : UTF-8
Codec ID : S_TEXT/UTF8
Codec ID/Info : UTF-8 Plain Text
Duration : 43 min 29 s
Bit rate : 74 b/s
Count of elements : 717
Stream size : 23.6 KiB (0)
Title : Latinoamrica
Language : Spanish
Default : No
Forced : No

Text #6
ID : 8
Format : UTF-8
Codec ID : S_TEXT/UTF8
Codec ID/Info : UTF-8 Plain Text
Duration : 43 min 29 s
Bit rate : 75 b/s
Count of elements : 736
Stream size : 24.1 KiB (0)
Title : Espa?a
Language : Spanish
Default : No
Forced : No

Text #7
ID : 9
Format : UTF-8
Codec ID : S_TEXT/UTF8
Codec ID/Info : UTF-8 Plain Text
Duration : 43 min 29 s
Bit rate : 73 b/s
Count of elements : 731
Stream size : 23.4 KiB (0)
Language : Finnish
Default : No
Forced : No

Text #8
ID : 10
Format : UTF-8
Codec ID : S_TEXT/UTF8
Codec ID/Info : UTF-8 Plain Text
Duration : 43 min 29 s
Bit rate : 73 b/s
Count of elements : 735
Stream size : 23.5 KiB (0)
Language : French
Default : No
Forced : No

Text #9
ID : 11
Format : UTF-8
Codec ID : S_TEXT/UTF8
Codec ID/Info : UTF-8 Plain Text
Duration : 43 min 29 s
Bit rate : 115 b/s
Count of elements : 738
Stream size : 36.7 KiB (0)
Language : Hebrew
Default : No
Forced : No

Text #10
ID : 12
Format : UTF-8
Codec ID : S_TEXT/UTF8
Codec ID/Info : UTF-8 Plain Text
Duration : 43 min 29 s
Bit rate : 202 b/s
Count of elements : 738
Stream size : 64.5 KiB (0)
Language : Hindi
Default : No
Forced : No

Text #11
ID : 13
Format : UTF-8
Codec ID : S_TEXT/UTF8
Codec ID/Info : UTF-8 Plain Text
Duration : 43 min 29 s
Bit rate : 62 b/s
Count of elements : 730
Stream size : 19.8 KiB (0)
Language : Indonesian
Default : No
Forced : No

Text #12
ID : 14
Format : UTF-8
Codec ID : S_TEXT/UTF8
Codec ID/Info : UTF-8 Plain Text
Duration : 43 min 29 s
Bit rate : 78 b/s
Count of elements : 731
Stream size : 24.9 KiB (0)
Language : Italian
Default : No
Forced : No

Text #13
ID : 15
Format : UTF-8
Codec ID : S_TEXT/UTF8
Codec ID/Info : UTF-8 Plain Text
Duration : 43 min 30 s
Bit rate : 67 b/s
Count of elements : 699
Stream size : 21.4 KiB (0)
Language : Japanese
Default : No
Forced : No

Text #14
ID : 16
Format : UTF-8
Codec ID : S_TEXT/UTF8
Codec ID/Info : UTF-8 Plain Text
Duration : 43 min 29 s
Bit rate : 77 b/s
Count of elements : 735
Stream size : 24.8 KiB (0)
Language : Korean
Default : No
Forced : No

Text #15
ID : 17
Format : UTF-8
Codec ID : S_TEXT/UTF8
Codec ID/Info : UTF-8 Plain Text
Duration : 43 min 29 s
Bit rate : 76 b/s
Count of elements : 735
Stream size : 24.2 KiB (0)
Language : Norwegian Bokmal
Default : No
Forced : No

Text #16
ID : 18
Format : UTF-8
Codec ID : S_TEXT/UTF8
Codec ID/Info : UTF-8 Plain Text
Duration : 43 min 29 s
Bit rate : 68 b/s
Count of elements : 714
Stream size : 21.8 KiB (0)
Language : Dutch
Default : No
Forced : No

Text #17
ID : 19
Format : UTF-8
Codec ID : S_TEXT/UTF8
Codec ID/Info : UTF-8 Plain Text
Duration : 43 min 29 s
Bit rate : 65 b/s
Count of elements : 714
Stream size : 20.7 KiB (0)
Language : Polish
Default : No
Forced : No

Text #18
ID : 20
Format : UTF-8
Codec ID : S_TEXT/UTF8
Codec ID/Info : UTF-8 Plain Text
Duration : 43 min 29 s
Bit rate : 73 b/s
Count of elements : 729
Stream size : 23.5 KiB (0)
Language : Portuguese
Default : No
Forced : No

Text #19
ID : 21
Format : UTF-8
Codec ID : S_TEXT/UTF8
Codec ID/Info : UTF-8 Plain Text
Duration : 43 min 29 s
Bit rate : 130 b/s
Count of elements : 738
Stream size : 41.5 KiB (0)
Language : Russian
Default : No
Forced : No

Text #20
ID : 22
Format : UTF-8
Codec ID : S_TEXT/UTF8
Codec ID/Info : UTF-8 Plain Text
Duration : 43 min 29 s
Bit rate : 66 b/s
Count of elements : 706
Stream size : 21.2 KiB (0)
Language : Swedish
Default : No
Forced : No

Text #21
ID : 23
Format : UTF-8
Codec ID : S_TEXT/UTF8
Codec ID/Info : UTF-8 Plain Text
Duration : 43 min 29 s
Bit rate : 195 b/s
Count of elements : 736
Stream size : 62.1 KiB (0)
Language : Tamil
Default : No
Forced : No

Text #22
ID : 24
Format : UTF-8
Codec ID : S_TEXT/UTF8
Codec ID/Info : UTF-8 Plain Text
Duration : 43 min 29 s
Bit rate : 213 b/s
Count of elements : 738
Stream size : 68.1 KiB (0)
Language : Telugu
Default : No
Forced : No

Text #23
ID : 25
Format : UTF-8
Codec ID : S_TEXT/UTF8
Codec ID/Info : UTF-8 Plain Text
Duration : 43 min 29 s
Bit rate : 183 b/s
Count of elements : 737
Stream size : 58.5 KiB (0)
Language : Thai
Default : No
Forced : No

Text #24
ID : 26
Format : UTF-8
Codec ID : S_TEXT/UTF8
Codec ID/Info : UTF-8 Plain Text
Duration : 43 min 29 s
Bit rate : 68 b/s
Count of elements : 730
Stream size : 21.9 KiB (0)
Language : Turkish
Default : No
Forced : No

Text #25
ID : 27
Format : UTF-8
Codec ID : S_TEXT/UTF8
Codec ID/Info : UTF-8 Plain Text
Duration : 43 min 29 s
Bit rate : 69 b/s
Count of elements : 738
Stream size : 22.1 KiB (0)
Title : ? ? ?
Language : Chinese
Default : No
Forced : No

Text #26
ID : 28
Format : UTF-8
Codec ID : S_TEXT/UTF8
Codec ID/Info : UTF-8 Plain Text
Duration : 43 min 29 s
Bit rate : 69 b/s
Count of elements : 738
Stream size : 22.2 KiB (0)
Title : ? ? ?
Language : Chinese
Default : No
Forced : No

Screenshot / Wideo
[img]http://mid.images.nitro.to/nitro.to_upload_2020_s01_complete_720p-amzn-web-ddp5-1-x264-ntb_eng_sub-multi_napisy_pl.mid_8482__18054995.jpeg[/img]
[img]http://mid.images.nitro.to/nitro.to_upload_2020_s01_complete_720p-amzn-web-ddp5-1-x264-ntb_eng_sub-multi_napisy_pl.mid_8918__18054996.jpeg[/img]

https://www.youtube.com/watch?v=eOQKFUlyCgg
Ocena użytkowników Help
Działa(0) | Fake(0) | Nie działa(0) | Wymagane hasło(0) | Wirus(0)
Statystyki seed/leech Ostatnio aktualizowane: 2022-05-17 14:47:41 [Aktualizuj]


Napisano: 02.02.2023 15:59
 
Nikt jeszcze nie skomentował tego torrenta... Może Ty to zrobisz?
Oświadczenie: Pliki prezentowane w katalogu nie znajdują się na serwerach wortalu. Użytkownicy zezwolili na ich udostępnienie. Administrator serwisu BitNova.info oraz właściciel serwera nie może ponieść konsekwencji za to co użytkownicy udostępniają i publikują. Pamiętaj! Nie możesz używać tego serwisu do rozpowszechniania lub ściągania materiałów do których nie masz odpowiednich praw lub licencji. Użytkownicy są odpowiedzialni za przestrzeganie tych zasad.

(Disclaimer: None files presented in the directory aren't hosted on servers vortal. Users allow their release. The administrator of site BitNova.info and owner of the server can not be held responsible for what its users post, or any other actions of its users. You may not use this site to distribute or download any material when you do not have the legal rights to do so. It is your own responsibility to adhere to these terms.)
» Zgłaszanie nadużyć / Abuse