Jedyny taki katalog polskich torrentów w sieci. Najlepsze torrenty w jednym miejscu.

Korzystanie ze strony jest darmowe. W przeciwieństwie do konkurencji nie kasujemy kont użytkowników bez ich wyraźnej prośby.


Torrent: Mulan *2004* [1080p.BluRay.x264-BRY] [Dubbing PL] v62

Mulan *2004* [1080p.BluRay.x264-BRY] [Dubbing PL] v62 torrent
Dodał: viola62
14.09.2020 16:46
Kategoria: Animowane

Rozmiar: 3.78 GB
Seed'ów: 0
Leecher'ów: 1
Pobrań: 0

Kondycja:
 


» Komentarze [1]
» Obserwuj
» Zgłoś plik
...( Info )...

Oryginalny tytuł: Mulan
Produkcja: USA
Gatunek: Animacja, Familijny, Przygodowy
Data premiery: 1998-11-20
Reżyseria: Barry Cook, Tony Bancroft; Joanna Wizmur (reżyser dubbingu PL)
Scenariusz: Rita Hsiao, Chris Sanders, Philip LaZebnik, Raymond Singer, Eugenia Bostwick-Singer; Elżbieta Łopatniukowa (dialogi w dubbingu PL)
Muzyka: Jerry Goldsmith

...( Opis )...

"Mulan" jest ekranizacją popularnej chińskiej legendy o młodej dziewczynie, która w męskim przebraniu wstępuje do wojska i stawia czoła najazdowi Hunów. W niewielkiej wiosce młoda dziewczyna imieniem Mulan przygotowuje się do zamążpójścia. Spotkanie ze swatką kończy się katastrofą z powodu jej niesfornego świerszcza. Tego samego wieczoru jej ojciec zostaje powołany do wojska na wojnę z Hunami, którzy najechali Chiny. Mulan chcąc ocalić chorego ojca podejmuje decyzję, która zadecyduje o całym jej dalszym losie. Postanawia złamać tradycję i zastąpić ojca na polu walki. Obcina włosy, przywdziewa zbroję ojca i pod osłoną nocy wyrusza na wiernym koniu, Khanie, na spotkanie przeznaczenia.

...( Obsada )...

Jolanta Fraszyńska - Mulan
Jerzy Stuhr - Mushu
Jerzy Bończak - Yao
Maciej Molęda - kapitan Li Shang

...( Dane Techniczne )...

Format : Matroska
Format version : Version 4
File size : 3.78 GiB
Duration : 1 h 18 min
Overall bit rate : 6 884 kb/s
Movie name : Mulan.2.2004.PLDUB.1080p.BluRay.x264-BRY
Encoded date : UTC 2015-08-10 15:16:25
Writing application : mkvmerge v6.3.0 ('You can't stop me!') built on Jun 28 2013 20:09:41
Writing library : libebml v1.3.0 + libmatroska v1.4.0
Attachments : Mulan II.jpg

Video
ID : 1
Format : AVC
Format/Info : Advanced Video Codec
Format profile : High@L4.1
Format settings : CABAC / 4 Ref Frames
Format settings, CABAC : Yes
Format settings, Reference : 4 frames
Codec ID : V_MPEG4/ISO/AVC
Duration : 1 h 18 min
Bit rate : 6 500 kb/s
Width : 1 920 pixels
Height : 1 080 pixels
Display aspect ratio : 16:9
Frame rate mode : Constant
Frame rate : 23.976 (24000/1001) FPS
Color space : YUV
Chroma subsampling : 4:2:0
Bit depth : 8 bits
Scan type : Progressive
Bits/(Pixel*Frame) : 0.131
Stream size : 3.50 GiB (92%)
Title : beAst
Writing library : x264 core 130 r2273 b3065e6
Encoding settings : cabac=1 / ref=4 / deblock=1:-3:-3 / analyse=0x3:0x133 / me=tesa / subme=11 / psy=1 / psy_rd=0.60:0.00 / mixed_ref=1 / me_range=32 / chroma_me=1 / trellis=2 / 8x8dct=1 / cqm=0 / deadzone=21,11 / fast_pskip=0 / chroma_qp_offset=-2 / threads=24 / lookahead_threads=2 / sliced_threads=0 / nr=0 / decimate=0 / interlaced=0 / bluray_compat=0 / constrained_intra=0 / bframes=6 / b_pyramid=2 / b_adapt=2 / b_bias=0 / direct=3 / weightb=1 / open_gop=0 / weightp=2 / keyint=240 / keyint_min=23 / scenecut=40 / intra_refresh=0 / rc_lookahead=60 / rc=2pass / mbtree=1 / bitrate=6500 / ratetol=1.0 / qcomp=0.60 / qpmin=0 / qpmax=69 / qpstep=4 / cplxblur=20.0 / qblur=0.5 / vbv_maxrate=45000 / vbv_bufsize=45000 / nal_hrd=none / ip_ratio=1.40 / aq=1:0.60
Language : English
Default : No
Forced : No

Audio
ID : 2
Format : AC-3
Format/Info : Audio Coding 3
Commercial name : Dolby Digital
Codec ID : A_AC3
Duration : 1 h 18 min
Bit rate mode : Constant
Bit rate : 384 kb/s
Channel(s) : 6 channels
Channel layout : L R C LFE Ls Rs
Sampling rate : 48.0 kHz
Frame rate : 31.250 FPS (1536 SPF)
Bit depth : 16 bits
Compression mode : Lossy
Stream size : 216 MiB (6%)
Title : PL
Language : Polish
Service kind : Complete Main
Default : No
Forced : No

Menu
00:00:00.000 : en:00:00:00.000
00:03:12.317 : en:00:03:12.317
00:08:30.844 : en:00:08:30.844
00:12:12.023 : en:00:12:12.023
00:14:15.354 : en:00:14:15.354
00:17:16.202 : en:00:17:16.202
00:19:57.196 : en:00:19:57.196
00:25:07.089 : en:00:25:07.089
00:31:51.660 : en:00:31:51.660
00:38:00.570 : en:00:38:00.570
00:42:18.953 : en:00:42:18.953
00:51:12.945 : en:00:51:12.945
01:02:08.725 : en:01:02:08.725
01:04:57.977 : en:01:04:57.977
01:10:14.043 : en:01:10:14.043
01:13:23.774 : en:01:13:23.774



Ocena użytkowników Help
Działa(0) | Fake(0) | Nie działa(0) | Wymagane hasło(0) | Wirus(0)
Statystyki seed/leech Ostatnio aktualizowane: 2022-01-24 20:47:29 [Aktualizuj]
pma001
pma001
Napisano: 2020-09-17 20:54
 
fajne
Oświadczenie: Pliki prezentowane w katalogu nie znajdują się na serwerach wortalu. Użytkownicy zezwolili na ich udostępnienie. Administrator serwisu BitNova.info oraz właściciel serwera nie może ponieść konsekwencji za to co użytkownicy udostępniają i publikują. Pamiętaj! Nie możesz używać tego serwisu do rozpowszechniania lub ściągania materiałów do których nie masz odpowiednich praw lub licencji. Użytkownicy są odpowiedzialni za przestrzeganie tych zasad.

(Disclaimer: None files presented in the directory aren't hosted on servers vortal. Users allow their release. The administrator of site BitNova.info and owner of the server can not be held responsible for what its users post, or any other actions of its users. You may not use this site to distribute or download any material when you do not have the legal rights to do so. It is your own responsibility to adhere to these terms.)
» Zgłaszanie nadużyć / Abuse