Jedyny taki katalog polskich torrentów w sieci. Najlepsze torrenty w jednym miejscu.

Korzystanie ze strony jest darmowe. W przeciwieństwie do konkurencji nie kasujemy kont użytkowników bez ich wyraźnej prośby.


Torrent: Mulan 2020 [WEBRip.720p.x264-ION10] [ENG]

Mulan 2020 [WEBRip.720p.x264-ION10] [ENG] torrent
Dodał: Ishimura
07.09.2020 05:25
Kategoria: Przygodowe

Rozmiar: 1.31 GB
Seed'ów: 17
Leecher'ów: 4
Pobrań: 1558

Kondycja:
 


» Komentarze [0]
» Obserwuj
» Zgłoś plik
https://www.imdb.com/title/tt4566758/
https://www.filmweb.pl/film/Mulan-2020-740066
Gatunek: Dramat / Przygodowy
Data premiery: 27 marca 2020 (Polska)
Reżyseria: Niki Caro
Czas trwania: 115 minut
Kraj produkcji: Stany Zjednoczone
Produkcja: Chris Bender, Tendo Nagenda, Jason T. Reed, Jake Weiner
Napisy PL na Opensubtitles

Kobieta o imieniu Hua Mulan przebrana za mężczyzna zaciąga się do cesarskiej armii, aby pomóc swojemu schorowanemu ojcu.
Mulan ? amerykański film fabularny z 2020 roku w reżyserii Niki Caro, wyprodukowany przez wytwórnię Walt Disney Studios Motion Pictures. Film jest aktorskim remakiem animowanego filmu Disneya z 1998 roku o tym samym tytule.

Liu Yifei jako Mulan
Donnie Yen jako komandor Tung
Jason Scott Lee jako Bori Khan
Yoson An jako Chen Honghui
Gong Li jako Xian Lang
Jet Li jako cesarz Chin
Tzi Ma jako Hua Zhou
Rosalind Chao jako Hua Li
Xana Tang jako Hua Xiu

Mulan.2020.720p.DSNP.WEBRip.DDP5.1.x264.LLG.mp4
Format : MPEG-4
Format profile : Base Media
Codec ID : isom (isom/iso2/avc1/mp41)
File size : 1.30 GiB
Duration : 1 h 55 min
Overall bit rate mode : Variable
Overall bit rate : 1 619 kb/s
Writing application : Lavf57.83.100

Video
ID : 1
Format : AVC
Format/Info : Advanced Video Codec
Format profile : [email protected]
Format settings : CABAC / 1 Ref Frames
Format settings, CABAC : Yes
Format settings, Reference frames : 1 frame
Codec ID : avc1
Codec ID/Info : Advanced Video Coding
Duration : 1 h 55 min
Bit rate mode : Variable
Bit rate : 1 167 kb/s
Maximum bit rate : 3 600 kb/s
Width : 1 280 pixels
Height : 720 pixels
Display aspect ratio : 16:9
Frame rate mode : Constant
Frame rate : 23.976 (23976/1000) FPS
Color space : YUV
Chroma subsampling : 4:2:0
Bit depth : 8 bits
Scan type : Progressive
Bits/(PixelFrame) : 0.053
Stream size : 961 MiB (72)
Codec configuration box : avcC

Audio
ID : 2
Format : AC-3
Format/Info : Audio Coding 3
Commercial name : Dolby Digital
Codec ID : ac-3
Duration : 1 h 55 min
Bit rate mode : Constant
Bit rate : 448 kb/s
Channel(s) : 6 channels
Channel layout : L R C LFE Ls Rs
Sampling rate : 48.0 kHz
Frame rate : 31.250 FPS (1536 SPF)
Compression mode : Lossy
Stream size : 369 MiB (28)
Language : English
Service kind : Complete Main
Default : Yes
Alternate group : 1
Ocena użytkowników Help
Działa(0) | Fake(0) | Nie działa(0) | Wymagane hasło(0) | Wirus(0)
Statystyki seed/leech Ostatnio aktualizowane: 2020-09-23 10:25:00 [Aktualizuj]
Napisano: 25.09.2020 06:45
 
Nikt jeszcze nie skomentował tego torrenta... Może Ty to zrobisz?
Oświadczenie: Pliki prezentowane w katalogu nie znajdują się na serwerach wortalu. Użytkownicy zezwolili na ich udostępnienie. Administrator serwisu BitNova.info oraz właściciel serwera nie może ponieść konsekwencji za to co użytkownicy udostępniają i publikują. Pamiętaj! Nie możesz używać tego serwisu do rozpowszechniania lub ściągania materiałów do których nie masz odpowiednich praw lub licencji. Użytkownicy są odpowiedzialni za przestrzeganie tych zasad.

(Disclaimer: None files presented in the directory aren't hosted on servers vortal. Users allow their release. The administrator of site BitNova.info and owner of the server can not be held responsible for what its users post, or any other actions of its users. You may not use this site to distribute or download any material when you do not have the legal rights to do so. It is your own responsibility to adhere to these terms.)
» Zgłaszanie nadużyć / Abuse