Jedyny taki katalog polskich torrentów w sieci. Najlepsze torrenty w jednym miejscu.

Korzystanie ze strony jest darmowe. W przeciwieństwie do konkurencji nie kasujemy kont użytkowników bez ich wyraźnej prośby.


Torrent: Miasto śmierci - Killing Streets (1991) [DVDRip] [XviD] [AC3-NN] [Lektor PL]

Miasto śmierci - Killing Streets (1991) [DVDRip] [XviD] [AC3-NN] [Lektor PL] torrent
Dodał: Anonimowy
06.09.2020 12:06
Kategoria: Sensacyjne

Rozmiar: 2.03 GB
Seed'ów: 0
Leecher'ów: 0
Pobrań: 0

Kondycja:
 


» Komentarze [0]
» Obserwuj
» Zgłoś plik
Produkcja: USA Izrael
Reżyseria: Stephen Cornwell
Scenariusz: Stephen Cornwell Andrew Deutsch
Premiera: maj 1991 (świat)
Gatunek: Akcja

OPIS:

Młody żołnierz piechoty zostaje porwany przez terrorystów w Bejrucie. Jego brat bliźniak Chis (Michael Paré), sfrustrowany bezradnością rządu, który nie jest w stanie udzielić żadnej informacji, wyjeżdża do Libanu, aby przeprowadzić akcję ratunkową na własną rękę.

OBSADA:

Michael Paré ... Chris
Rahely Chimeyan ... Mayla
Hashem Yassin ... Salah
Yaacov Gvir-Cohen ... Ali

INFO:

File size : 2.03 GiB
Duration : 1 h 42 min
Overall bit rate : 2 845 kb/s

Video
Codec ID/Hint : XviD
Duration : 1 h 42 min
Bit rate : 2 442 kb/s
Width : 720 pixels
Height : 400 pixels
Display aspect ratio : 16:9
Frame rate : 25.000 FPS
Stream size : 1.74 GiB (86%)

Audio #2
Format : AC-3
Bit rate : 192 kb/s
Channel(s) : 2 channels
Channel positions : Front: L R
Sampling rate : 48.0 kHz
Stream size : 140 MiB (7%)

2 lektorów PL

1 - Marek Ciunel (tvp)

2 - Tomasz Knapik (mgm)
Ocena użytkowników Help
Działa(0) | Fake(0) | Nie działa(0) | Wymagane hasło(0) | Wirus(0)
Statystyki seed/leech Ostatnio aktualizowane: 2021-04-09 00:21:25 [Aktualizuj]
Napisano: 06.05.2021 00:21
 
Nikt jeszcze nie skomentował tego torrenta... Może Ty to zrobisz?
Oświadczenie: Pliki prezentowane w katalogu nie znajdują się na serwerach wortalu. Użytkownicy zezwolili na ich udostępnienie. Administrator serwisu BitNova.info oraz właściciel serwera nie może ponieść konsekwencji za to co użytkownicy udostępniają i publikują. Pamiętaj! Nie możesz używać tego serwisu do rozpowszechniania lub ściągania materiałów do których nie masz odpowiednich praw lub licencji. Użytkownicy są odpowiedzialni za przestrzeganie tych zasad.

(Disclaimer: None files presented in the directory aren't hosted on servers vortal. Users allow their release. The administrator of site BitNova.info and owner of the server can not be held responsible for what its users post, or any other actions of its users. You may not use this site to distribute or download any material when you do not have the legal rights to do so. It is your own responsibility to adhere to these terms.)
» Zgłaszanie nadużyć / Abuse