Jedyny taki katalog polskich torrentów w sieci. Najlepsze torrenty w jednym miejscu.

Korzystanie ze strony jest darmowe. W przeciwieństwie do konkurencji nie kasujemy kont użytkowników bez ich wyraźnej prośby.


Torrent: Alex Rider 2020 [S01] [COMPLETE] [2160p.AMZN.WEB-DL.x265.10bit.HDR.DDP5.1-SKGTV] [ENG] [Sub: ENG]

Alex Rider 2020 [S01] [COMPLETE] [2160p.AMZN.WEB-DL.x265.10bit.HDR.DDP5.1-SKGTV] [ENG] [Sub: ENG] torrent
Dodał: Ishimura
04.09.2020 02:05
Kategoria: Seriale obyczajowe

Rozmiar: 37.41 GB
Seed'ów: 1
Leecher'ów: 5
Pobrań: 238

Kondycja:
 


» Komentarze [0]
» Obserwuj
» Zgłoś plik
Info
https://www.imdb.com/title/tt6964748/
https://www.filmweb.pl/serial/Alex+Rider-2020-840799
Produkcja: USA, Wielka Brytania
Gatunek: Akcja
Premiera: 04 czerwca 2020 (Świat)
Sieć: Amazon Prime Video
Liczba sezonów: 1 [Epizodów: 8]
Reżyserzy: Andreas Prochaska, Christopher Smith

Opis
Kiedy Alex Rider dowiaduje się, że jego wuj Ian był brytyjskim szpiegiem i zginął na służbie, a nie w wypadku samochodowym, jak mu mówiono. Życie tego dotychczas zwykłego nastolatka ulega całkowitej zmianie.
Alex Rider to serial produkcji brytyjskiej opowiadający o tytułowym nastolatku z Londynu, który zostaje zwerbowany przez brytyjską agencję wywiadowczą MI6. Jego zadaniem jest infiltracja kontrowersyjnej szkoły dla dzieci bogatych i wpływowych ludzi.

Obsada
- Otto Farrant .... Alex Rider
- Ronke Adekoluejo .... Jack Starbright
- Haluk Bilginer .... Dr Greif
- Nyasha Hatendi .... Smithers
- Vicky McClure .... Pani Jones
- Thomas Levin .... Yassen Gregorovitch
- Ana Ularu .... Eva Stellenbosh
- Marli Siu .... Kyra

Dane Techniczne
MediaInfo ?
Video
ID : 3
Format : HEVC
Format/Info : High Efficiency Video Coding
Format profile : Main [email protected]Main
HDR format : SMPTE ST 2094 App 4, Version 0
Codec ID : V_MPEGH/ISO/HEVC
Duration : 45 min 14 s
Bit rate : 14.7 Mb/s
Width : 3 840 pixels
Height : 1 920 pixels
Display aspect ratio : 2.000
Frame rate mode : Constant
Frame rate : 23.976 (24000/1001) FPS
Standard : NTSC
Color space : YUV
Chroma subsampling : 4:2:0 (Type 2)
Bit depth : 10 bits
Bits/(PixelFrame) : 0.083
Stream size : 4.64 GiB (96)
Default : Yes
Forced : No
Color range : Limited
Color primaries : BT.2020
Transfer characteristics : PQ
Matrix coefficients : BT.2020 non-constant
Mastering display color primaries : Display P3
Mastering display luminance : min: 0.0001 cd/m2, max: 1000 cd/m2
Maximum Content Light Level : 3902 cd/m2
Maximum Frame-Average Light Level : 112 cd/m2

Audio
ID : 1
Format : E-AC-3
Format/Info : Enhanced AC-3
Commercial name : Dolby Digital Plus
Codec ID : A_EAC3
Duration : 45 min 14 s
Bit rate mode : Constant
Bit rate : 640 kb/s
Channel(s) : 6 channels
Channel layout : L R C LFE Ls Rs
Sampling rate : 48.0 kHz
Frame rate : 31.250 FPS (1536 SPF)
Compression mode : Lossy
Stream size : 207 MiB (4)
Title : English
Language : English
Service kind : Complete Main
Default : Yes
Forced : No

Text
ID : 2
Format : UTF-8
Codec ID : S_TEXT/UTF8
Codec ID/Info : UTF-8 Plain Text
Duration : 44 min 17 s
Bit rate : 63 b/s
Count of elements : 713
Stream size : 20.8 KiB (0)
Title : English [SDH]
Language : English
Default : No
Forced : No

Menu
00:00:00.000 : en:Yassen sneaks into a room
00:03:47.000 : en:Opening Credits
00:04:31.000 : en:Alex is at school
00:06:10.000 : en:Alex breaks into school
00:08:19.000 : en:Alex is in a car with Ian
00:09:04.000 : en:Alex backs to his home
00:11:28.000 : en:Ian works at home
00:14:01.000 : en:Alex talks with Tom
00:15:15.000 : en:Ian sees Martin
00:16:03.000 : en:Alex is at party
00:19:24.000 : en:Ian goes in an old building
00:22:51.000 : en:Alex receives a sad news
00:26:46.000 : en:Jones visits Alex
00:27:40.000 : en:Blunt investigates Martin
00:28:31.000 : en:Tom comes to Alex
00:32:10.000 : en:Alex looks for a clue
00:35:57.000 : en:Alex meets Blunt
00:39:54.000 : en:Alex has no choice
00:43:21.000 : en:Blunt waits for Alex
00:44:18.000 : en:End Credits

Screenshot / Wideo

https://www.youtube.com/watch?v=NemWoDrL3
Ocena użytkowników Help
Działa(0) | Fake(0) | Nie działa(0) | Wymagane hasło(0) | Wirus(0)
Statystyki seed/leech Ostatnio aktualizowane: 2021-03-03 07:48:24 [Aktualizuj]
Napisano: 09.03.2021 08:48
 
Nikt jeszcze nie skomentował tego torrenta... Może Ty to zrobisz?
Oświadczenie: Pliki prezentowane w katalogu nie znajdują się na serwerach wortalu. Użytkownicy zezwolili na ich udostępnienie. Administrator serwisu BitNova.info oraz właściciel serwera nie może ponieść konsekwencji za to co użytkownicy udostępniają i publikują. Pamiętaj! Nie możesz używać tego serwisu do rozpowszechniania lub ściągania materiałów do których nie masz odpowiednich praw lub licencji. Użytkownicy są odpowiedzialni za przestrzeganie tych zasad.

(Disclaimer: None files presented in the directory aren't hosted on servers vortal. Users allow their release. The administrator of site BitNova.info and owner of the server can not be held responsible for what its users post, or any other actions of its users. You may not use this site to distribute or download any material when you do not have the legal rights to do so. It is your own responsibility to adhere to these terms.)
» Zgłaszanie nadużyć / Abuse