Jedyny taki katalog polskich torrentów w sieci. Najlepsze torrenty w jednym miejscu.

Korzystanie ze strony jest darmowe. W przeciwieństwie do konkurencji nie kasujemy kont użytkowników bez ich wyraźnej prośby.


Torrent: Każdy sposób jest dobry Every Which Way But Loose (1978) [Lektor][WebRip][MP4].mp4

Każdy sposób jest dobry Every Which Way But Loose (1978) [Lektor][WebRip][MP4].mp4 torrent
Dodał: loki79
29.06.2020 18:16
Kategoria: Komedie

Rozmiar: 1.06 GB
Seed'ów: 0
Leecher'ów: 0
Pobrań: 0

Kondycja:
 


» Komentarze [0]
» Obserwuj
» Zgłoś plik
INFO:

Tytuł: Każdy sposób jest dobry
Produkcja: USA
Gatunek: Komedia, Akcja
Premiera: 20 grudnia 1978 (świat)
Reżyseria: James Fargo
Scenariusz: Jeremy Joe Kronsberg

OPIS:

Jest to pierwsza komedia z udziałem Clinta, w której gra on Philo Beddoe - boksera który razem z parą kumpli - orangutanem Clyde`m i promotorem Orville`m podróżują ciężarówką od miasta do miasta gdzie Philo za pieniądze walczy z najsilniejszym i najodważniejszym facetem w danej okolicy. Tym razem jednak Philo zakochuje się w Lynn - lokalnej gwiazdce - piosenkarce Country. Ale to dopiero początek afery w którą wplątany będzie dziwny gang, batalion nieprzyjemnych stróżów prawa - no i mamuśka Orville`a. Film był niesamowitym sukcesem kasowym.

OBSADA:

Clint Eastwood .... Philo Beddoe
Sondra Locke .... Lynn Halsey-Taylor
Geoffrey Lewis .... Orville Boggs
Beverly D`Angelo .... Echo
Walter Barnes .... Tank Murdock

DANE TECHNICZNE:

Format : MPEG-4
Format profile : Base Media
Codec ID : isom
File size : 1.06 GiB
Duration : 1h 54mn
Overall bit rate : 1 327 Kbps
Writing application : Lavf57.71.100

Video
ID : 1
Format : AVC
Format/Info : Advanced Video Codec
Format profile : Baseline@L3.0
Format settings, CABAC : No
Format settings, ReFrames : 2 frames
Format settings, GOP : M=1, N=50
Codec ID : avc1
Codec ID/Info : Advanced Video Coding
Duration : 1h 54mn
Bit rate : 1 200 Kbps
Width : 854 pixels
Height : 480 pixels
Display aspect ratio : 16:9
Frame rate mode : Constant
Frame rate : 23.976 fps
Color space : YUV
Chroma subsampling : 4:2:0
Bit depth : 8 bits
Scan type : Progressive
Bits/(Pixel*Frame) : 0.122
Stream size : 979 MiB (90%)
Writing library : x264 core 150


Audio
ID : 2
Format : AAC
Format/Info : Advanced Audio Codec
Format profile : LC
Codec ID : 40
Duration : 1h 54mn
Bit rate mode : Constant
Bit rate : 128 Kbps
Channel(s) : 2 channels
Channel positions : Front: L R
Sampling rate : 44.1 KHz
Compression mode : Lossy
Stream size : 105 MiB (10%)


User image
Ocena użytkowników Help
Działa(0) | Fake(0) | Nie działa(0) | Wymagane hasło(0) | Wirus(0)
Statystyki seed/leech Ostatnio aktualizowane: 2020-06-30 20:34:39 [Aktualizuj]
Napisano: 04.07.2020 11:14
 
Nikt jeszcze nie skomentował tego torrenta... Może Ty to zrobisz?
Oświadczenie: Pliki prezentowane w katalogu nie znajdują się na serwerach wortalu. Użytkownicy zezwolili na ich udostępnienie. Administrator serwisu BitNova.info oraz właściciel serwera nie może ponieść konsekwencji za to co użytkownicy udostępniają i publikują. Pamiętaj! Nie możesz używać tego serwisu do rozpowszechniania lub ściągania materiałów do których nie masz odpowiednich praw lub licencji. Użytkownicy są odpowiedzialni za przestrzeganie tych zasad.

(Disclaimer: None files presented in the directory aren't hosted on servers vortal. Users allow their release. The administrator of site BitNova.info and owner of the server can not be held responsible for what its users post, or any other actions of its users. You may not use this site to distribute or download any material when you do not have the legal rights to do so. It is your own responsibility to adhere to these terms.)
» Zgłaszanie nadużyć / Abuse