Jedyny taki katalog polskich torrentów w sieci. Najlepsze torrenty w jednym miejscu.

Korzystanie ze strony jest darmowe. W przeciwieństwie do konkurencji nie kasujemy kont użytkowników bez ich wyraźnej prośby.


Torrent: Jak tylko potrafisz Any Which Way You Can (1980) [Lektor][WebRip][720p][MP4]

Jak tylko potrafisz Any Which Way You Can (1980) [Lektor][WebRip][720p][MP4] torrent
Dodał: loki79
29.06.2020 18:07
Kategoria: Komedie

Rozmiar: 1.08 GB
Seed'ów: 0
Leecher'ów: 0
Pobrań: 0

Kondycja:
 


» Komentarze [0]
» Obserwuj
» Zgłoś plik
INFO:

Tytuł: Jak tylko potrafisz
Produkcja: USA
Gatunek: Komedia, Akcja
Premiera: 17 grudnia 1980 (świat)
Reżyseria: Buddy Van Horn
Scenariusz: Stanford Sherman
https://www.filmweb.pl/film/Jak+tylko+potrafisz-1980-3903

OPIS:

Po dwóch latach przerwy, nakręcona kontynuacja kasowego hitu pt. "Every Which Way But Loose", nie była już takim sukcesem. Philo Beddoe chce już wycofać się z barowych walk na pieniądze. Wraz ze swoim kumplem orangutanem Clyde`m i z dziewczyną - śpiewaczką country próbuje rozkręcić warsztat naprawy samochodów. Dostaje propozycję zarobienia dużych pieniędzy walcząc ze swym starym znajomym Jackiem Wilsonem. Odmawia, ale nie jest wstanie oprzeć się gangsterom którzy porywają mu dziewczynę aby zmusić go do walki. Film rozrywkowy, dobry na nudny sobotni wieczór.

OBSADA:

Clint Eastwood .... Philo Beddoe
Sondra Locke .... Lynn Halsey-Taylor
Geoffrey Lewis .... Orville Boggs
William Smith .... Jack Wilson
Harry Guardino .... James Beekman

DANE TECHNICZNE:

Format : MPEG-4
Format profile : Base Media
Codec ID : isom
File size : 1.08 GiB
Duration : 1h 55mn
Overall bit rate mode : Variable
Overall bit rate : 1 330 Kbps
Writing application : Lavf56.25.101

Video
ID : 1
Format : AVC
Format/Info : Advanced Video Codec
Format profile : Baseline@L3.0
Format settings, CABAC : No
Format settings, ReFrames : 2 frames
Format settings, GOP : M=1, N=50
Codec ID : avc1
Codec ID/Info : Advanced Video Coding
Duration : 1h 55mn
Bit rate : 1 200 Kbps
Width : 854 pixels
Height : 480 pixels
Display aspect ratio : 16:9
Frame rate mode : Constant
Frame rate : 23.976 fps
Color space : YUV
Chroma subsampling : 4:2:0
Bit depth : 8 bits
Scan type : Progressive
Bits/(Pixel*Frame) : 0.122
Stream size : 991 MiB (90%)
Writing library : x264 core 146

Audio
ID : 2
Format : AAC
Format/Info : Advanced Audio Codec
Format profile : LC
Codec ID : 40
Duration : 1h 55mn
Duration_LastFrame : -8ms
Bit rate mode : Variable
Bit rate : 128 Kbps
Maximum bit rate : 1 200 Kbps
Channel(s) : 2 channels
Channel positions : Front: L R
Sampling rate : 44.1 KHz
Compression mode : Lossy
Stream size : 106 MiB (10%)


User image
Ocena użytkowników Help
Działa(0) | Fake(0) | Nie działa(0) | Wymagane hasło(0) | Wirus(0)
Statystyki seed/leech Ostatnio aktualizowane: 2020-06-30 20:34:52 [Aktualizuj]
Napisano: 04.07.2020 10:48
 
Nikt jeszcze nie skomentował tego torrenta... Może Ty to zrobisz?
Oświadczenie: Pliki prezentowane w katalogu nie znajdują się na serwerach wortalu. Użytkownicy zezwolili na ich udostępnienie. Administrator serwisu BitNova.info oraz właściciel serwera nie może ponieść konsekwencji za to co użytkownicy udostępniają i publikują. Pamiętaj! Nie możesz używać tego serwisu do rozpowszechniania lub ściągania materiałów do których nie masz odpowiednich praw lub licencji. Użytkownicy są odpowiedzialni za przestrzeganie tych zasad.

(Disclaimer: None files presented in the directory aren't hosted on servers vortal. Users allow their release. The administrator of site BitNova.info and owner of the server can not be held responsible for what its users post, or any other actions of its users. You may not use this site to distribute or download any material when you do not have the legal rights to do so. It is your own responsibility to adhere to these terms.)
» Zgłaszanie nadużyć / Abuse