Jedyny taki katalog polskich torrentów w sieci. Najlepsze torrenty w jednym miejscu.

Korzystanie ze strony jest darmowe. W przeciwieństwie do konkurencji nie kasujemy kont użytkowników bez ich wyraźnej prośby.


Torrent: Droga do Nashville -Honkytonk Man(1982)[Lektor][WebRip][MP4]

Droga do Nashville -Honkytonk Man(1982)[Lektor][WebRip][MP4] torrent
Dodał: loki79
29.06.2020 18:01
Kategoria: Dramat

Rozmiar: 826.21 MB
Seed'ów: 0
Leecher'ów: 0
Pobrań: 0

Kondycja:
 


» Komentarze [2]
» Obserwuj
» Zgłoś plik
INFO:

Tytuł: Droga do Nashville
Produkcja: USA
Gatunek: Dramat, Komedia, Muzyczny
Premiera: 15 grudnia 1982 (świat)
Reżyseria: Clint Eastwood
Scenariusz: Clancy Carlile

OPIS:

Red Stovall jest muzykiem country, jest też alkoholikiem. Marzy o wielkim występie na Grand Ole Opry, tam gdzie spotykają się najlepsi z najlepszych. Pewnego dnia rzuca pracę, wyrusza do Nashville. W Oklahomie odwiedza siostrę. Ta postanawia oddać Redowi pod opiekę syna. A może jest odwrotnie, może to 14-letni Whit ma zaopiekować się wujkiem, by ten bezpiecznie dotarł do celu. Wraz z nimi jedzie również dziadek chłopca.

OBSADA:

Clint Eastwood .... Red Stovall
Matt Clark .... Virgil
Verna Bloom .... Emmy
Alexa Kenin .... Marlene
Barry Corbin .... Arnspringer

DANE TECHNICZNE:

Format : MPEG-4
Format profile : Base Media
Codec ID : isom
File size : 826 MiB
Duration : 1h 57mn
Overall bit rate mode : Variable
Overall bit rate : 980 Kbps
Writing application : Lavf56.25.101

Video
ID : 1
Format : AVC
Format/Info : Advanced Video Codec
Format profile : Baseline@L3.0
Format settings, CABAC : No
Format settings, ReFrames : 2 frames
Format settings, GOP : M=1, N=50
Codec ID : avc1
Codec ID/Info : Advanced Video Coding
Duration : 1h 57mn
Bit rate : 848 Kbps
Width : 640 pixels
Height : 360 pixels
Display aspect ratio : 16:9
Frame rate mode : Constant
Frame rate : 25.000 fps
Color space : YUV
Chroma subsampling : 4:2:0
Bit depth : 8 bits
Scan type : Progressive
Bits/(Pixel*Frame) : 0.147
Stream size : 714 MiB (86%)
Writing library : x264 core 146


Audio
ID : 2
Format : AAC
Format/Info : Advanced Audio Codec
Format profile : LC
Codec ID : 40
Duration : 1h 57mn
Duration_LastFrame : -9ms
Bit rate mode : Variable
Bit rate : 128 Kbps
Maximum bit rate : 849 Kbps
Channel(s) : 2 channels
Channel positions : Front: L R
Sampling rate : 44.1 KHz
Compression mode : Lossy
Stream size : 108 MiB (13%)


User image
Ocena użytkowników Help
Działa(0) | Fake(0) | Nie działa(0) | Wymagane hasło(0) | Wirus(0)
Statystyki seed/leech Ostatnio aktualizowane: 2020-07-03 15:27:19 [Aktualizuj]
Ludvikus
Ludvikus
Napisano: 2020-06-29 22:53
 
Brak seda
loki79
loki79
Napisano: 2020-06-30 08:59
 
Juz jest.
Oświadczenie: Pliki prezentowane w katalogu nie znajdują się na serwerach wortalu. Użytkownicy zezwolili na ich udostępnienie. Administrator serwisu BitNova.info oraz właściciel serwera nie może ponieść konsekwencji za to co użytkownicy udostępniają i publikują. Pamiętaj! Nie możesz używać tego serwisu do rozpowszechniania lub ściągania materiałów do których nie masz odpowiednich praw lub licencji. Użytkownicy są odpowiedzialni za przestrzeganie tych zasad.

(Disclaimer: None files presented in the directory aren't hosted on servers vortal. Users allow their release. The administrator of site BitNova.info and owner of the server can not be held responsible for what its users post, or any other actions of its users. You may not use this site to distribute or download any material when you do not have the legal rights to do so. It is your own responsibility to adhere to these terms.)
» Zgłaszanie nadużyć / Abuse