Jedyny taki katalog polskich torrentów w sieci. Najlepsze torrenty w jednym miejscu.

Korzystanie ze strony jest darmowe. W przeciwieństwie do konkurencji nie kasujemy kont użytkowników bez ich wyraźnej prośby.


Torrent: Święty / The Saint *1962* [Sezon 1] [DVDRip.Xvid] [Lektor PL] v62

Święty / The Saint *1962* [Sezon 1] [DVDRip.Xvid] [Lektor PL] v62 torrent
Dodał: viola62
07.06.2020 08:24
Kategoria: Seriale sensacyjne

Rozmiar: 4.14 GB
Seed'ów: 0
Leecher'ów: 0
Pobrań: 0

Kondycja:
 


» Komentarze [0]
» Obserwuj
» Zgłoś plik
...( Opis )...

Serial, który przyniósł ogromną popularność Rogerowi Moore’owi. Grany przez niego "Święty", czyli Simon Templer zajmuje się okradaniem bogatych kryminalistów. Czerpie z tego procederu, nie tylko profity dla siebie - dzięki jego przebiegłości, groźni przestępcy trafiają bowiem za kratki. Tego aspektu działalności bohatera najwyraźniej nie docenia inspektor Claude Eustace Teal. Nie ustaje on w próbach schwytania Templera. Urok, inteligencja i charyzma "Świętego" pozwalają jednak mu być zawsze o krok przed policją.

...( Obsada )...

Roger Moore.............. - Simon Templar aka Święty
Ivor Dean
Norman Florence

...( Dane Techniczne )...

Format : AVI
Format/Info : Audio Video Interleave
File size : 352 MiB
Duration : 48 min 37 s
Overall bit rate : 1 013 kb/s
Writing application : Lavf54.63.104

Video
ID : 0
Format : xvid
Codec ID : xvid
Duration : 48 min 37 s
Bit rate : 871 kb/s
Width : 576 pixels
Height : 416 pixels
Display aspect ratio : 1.385
Frame rate : 30.000 FPS
Scan type : Progressive
Bits/(Pixel*Frame) : 0.121
Stream size : 303 MiB (86%)

Audio
ID : 1
Format : MPEG Audio
Format version : Version 1
Format profile : Layer 3
Format settings : Joint stereo
Codec ID : 55
Codec ID/Hint : MP3
Duration : 48 min 37 s
Bit rate mode : Constant
Bit rate : 128 kb/s
Channel(s) : 2 channels
Sampling rate : 48.0 kHz
Compression mode : Lossy
Stream size : 44.5 MiB (13%)
Alignment : Aligned on interleaves
Interleave, duration : 24 ms (0.72 video frame)
Writing library : LAME3.99.5

===================================================

PS ... opis dotyczy odcinka "Utalentowany Mąż"

Trailer
Ocena użytkowników Help
Działa(0) | Fake(0) | Nie działa(0) | Wymagane hasło(0) | Wirus(0)
Statystyki seed/leech Ostatnio aktualizowane: 2020-09-11 18:15:13 [Aktualizuj]
Napisano: 20.09.2020 21:52
 
Nikt jeszcze nie skomentował tego torrenta... Może Ty to zrobisz?
Oświadczenie: Pliki prezentowane w katalogu nie znajdują się na serwerach wortalu. Użytkownicy zezwolili na ich udostępnienie. Administrator serwisu BitNova.info oraz właściciel serwera nie może ponieść konsekwencji za to co użytkownicy udostępniają i publikują. Pamiętaj! Nie możesz używać tego serwisu do rozpowszechniania lub ściągania materiałów do których nie masz odpowiednich praw lub licencji. Użytkownicy są odpowiedzialni za przestrzeganie tych zasad.

(Disclaimer: None files presented in the directory aren't hosted on servers vortal. Users allow their release. The administrator of site BitNova.info and owner of the server can not be held responsible for what its users post, or any other actions of its users. You may not use this site to distribute or download any material when you do not have the legal rights to do so. It is your own responsibility to adhere to these terms.)
» Zgłaszanie nadużyć / Abuse