Jedyny taki katalog polskich torrentów w sieci. Najlepsze torrenty w jednym miejscu.

Korzystanie ze strony jest darmowe. W przeciwieństwie do konkurencji nie kasujemy kont użytkowników bez ich wyraźnej prośby.


Torrent: Goliath [S03] [2160p] [AMZN] [WEB] [x265] [10bit] [HDR] [SKGTV] [Napisy PL]

Goliath [S03] [2160p] [AMZN] [WEB] [x265] [10bit] [HDR] [SKGTV] [Napisy PL] torrent
Dodał: Ishimura
24.04.2020 16:09
Kategoria: Seriale obyczajowe

Rozmiar: 41.67 GB
Seed'ów: 11
Leecher'ów: 13
Pobrań: 529

Kondycja:
 


» Komentarze [0]
» Obserwuj
» Zgłoś plik
Info

Produkcja: USA
Gatunek: Dramat, Prawniczy
Twórcy: David E. Kelley, Jonathan Shapiro
Platforma: Amazon Prime
Premiera: 14.10.2016

Opis

Zhańbiony adwokat postanawia zniszczyć kancelarię, którą sam pomógł stworzyć.

Obsada

Dane Techniczne

Video
ID : 1
Format : HEVC
Format/Info : High Efficiency Video Coding
Format profile : Main 10L5Main
HDR format : SMPTE ST 2094 App 4, Version 0
Codec ID : V_MPEGH/ISO/HEVC
Duration : 57 min 54 s
Bit rate : 14.3 Mb/s
Width : 3 840 pixels
Height : 2 160 pixels
Display aspect ratio : 16:9
Frame rate mode : Constant
Frame rate : 23.976 (24000/1001) FPS
Standard : NTSC
Color space : YUV
Chroma subsampling : 4:2:0 (Type 2)
Bit depth : 10 bits
Bits/(PixelFrame) : 0.072
Stream size : 5.77 GiB (96)
Default : Yes
Forced : No
Color range : Limited
Color primaries : BT.2020
Transfer characteristics : PQ
Matrix coefficients : BT.2020 non-constant
Mastering display color primaries : Display P3
Mastering display luminance : min: 0.0001 cd/m2, max: 1000 cd/m2
Maximum Content Light Level : 514 cd/m2
Maximum Frame-Average Light Level : 100 cd/m2

Audio
ID : 28
Format : E-AC-3
Format/Info : Enhanced AC-3
Commercial name : Dolby Digital Plus
Codec ID : A_EAC3
Duration : 57 min 54 s
Bit rate mode : Constant
Bit rate : 640 kb/s
Channel(s) : 6 channels
Channel layout : L R C LFE Ls Rs
Sampling rate : 48.0 kHz
Frame rate : 31.250 FPS (1536 SPF)
Compression mode : Lossy
Stream size : 265 MiB (4)
Language : English
Service kind : Complete Main
Default : Yes
Forced : No

Text #1
ID : 2
Format : UTF-8
Codec ID : S_TEXT/UTF8
Codec ID/Info : UTF-8 Plain Text
Duration : 55 min 15 s
Bit rate : 61 b/s
Count of elements : 877
Stream size : 24.9 KiB (0)
Title : English [SDH]
Language : English
Default : No
Forced : No

Text #2
ID : 3
Format : UTF-8
Codec ID : S_TEXT/UTF8
Codec ID/Info : UTF-8 Plain Text
Duration : 55 min 14 s
Bit rate : 51 b/s
Count of elements : 709
Stream size : 20.7 KiB (0)
Title : Castilian [Full]
Language : Spanish
Default : No
Forced : No

Text #3
ID : 4
Format : UTF-8
Codec ID : S_TEXT/UTF8
Codec ID/Info : UTF-8 Plain Text
Duration : 55 min 14 s
Bit rate : 51 b/s
Count of elements : 713
Stream size : 20.9 KiB (0)
Title : Spanish [Full]
Language : Spanish
Default : No
Forced : No

Text #4
ID : 5
Format : UTF-8
Codec ID : S_TEXT/UTF8
Codec ID/Info : UTF-8 Plain Text
Duration : 55 min 14 s
Bit rate : 49 b/s
Count of elements : 693
Stream size : 20.2 KiB (0)
Title : French [Full]
Language : French
Default : No
Forced : No

Text #5
ID : 6
Format : UTF-8
Codec ID : S_TEXT/UTF8
Codec ID/Info : UTF-8 Plain Text
Duration : 55 min 16 s
Bit rate : 48 b/s
Count of elements : 546
Stream size : 19.7 KiB (0)
Title : German [Full]
Language : German
Default : No
Forced : No

Text #6
ID : 7
Format : UTF-8
Codec ID : S_TEXT/UTF8
Codec ID/Info : UTF-8 Plain Text
Duration : 55 min 14 s
Bit rate : 55 b/s
Count of elements : 709
Stream size : 22.3 KiB (0)
Title : Italian [Full]
Language : Italian
Default : No
Forced : No

Text #7
ID : 8
Format : UTF-8
Codec ID : S_TEXT/UTF8
Codec ID/Info : UTF-8 Plain Text
Duration : 55 min 14 s
Bit rate : 49 b/s
Count of elements : 713
Stream size : 20.0 KiB (0)
Title : Brazilian Portuguese [Full]
Language : Portuguese
Default : No
Forced : No

Text #8
ID : 9
Format : UTF-8
Codec ID : S_TEXT/UTF8
Codec ID/Info : UTF-8 Plain Text
Duration : 55 min 14 s
Bit rate : 40 b/s
Count of elements : 704
Stream size : 16.3 KiB (0)
Title : Polish [Full]
Language : Polish
Default : No
Forced : No

Text #9
ID : 10
Format : UTF-8
Codec ID : S_TEXT/UTF8
Codec ID/Info : UTF-8 Plain Text
Duration : 55 min 14 s
Bit rate : 45 b/s
Count of elements : 713
Stream size : 18.5 KiB (0)
Title : Turkish [Full]
Language : Turkish
Default : No
Forced : No

Text #10
ID : 11
Format : UTF-8
Codec ID : S_TEXT/UTF8
Codec ID/Info : UTF-8 Plain Text
Duration : 55 min 14 s
Bit rate : 52 b/s
Count of elements : 708
Stream size : 21.1 KiB (0)
Title : Swedish [Full]
Language : Swedish
Default : No
Forced : No

Text #11
ID : 12
Format : UTF-8
Codec ID : S_TEXT/UTF8
Codec ID/Info : UTF-8 Plain Text
Duration : 55 min 14 s
Bit rate : 48 b/s
Count of elements : 702
Stream size : 19.7 KiB (0)
Title : Danish [Full]
Language : Danish
Default : No
Forced : No

Text #12
ID : 13
Format : UTF-8
Codec ID : S_TEXT/UTF8
Codec ID/Info : UTF-8 Plain Text
Duration : 55 min 14 s
Bit rate : 49 b/s
Count of elements : 711
Stream size : 19.9 KiB (0)
Title : Finnish [Full]
Language : Finnish
Default : No
Forced : No

Text #13
ID : 14
Format : UTF-8
Codec ID : S_TEXT/UTF8
Codec ID/Info : UTF-8 Plain Text
Duration : 55 min 14 s
Bit rate : 47 b/s
Count of elements : 702
Stream size : 19.2 KiB (0)
Title : Dutch [Full]
Language : Dutch
Default : No
Forced : No

Text #14
ID : 15
Format : UTF-8
Codec ID : S_TEXT/UTF8
Codec ID/Info : UTF-8 Plain Text
Duration : 55 min 14 s
Bit rate : 50 b/s
Count of elements : 711
Stream size : 20.4 KiB (0)
Title : Norwegian (Bokm?l) [Full]
Language : Norwegian Bokmal
Default : No
Forced : No

Text #15
ID : 16
Format : UTF-8
Codec ID : S_TEXT/UTF8
Codec ID/Info : UTF-8 Plain Text
Duration : 55 min 14 s
Bit rate : 91 b/s
Count of elements : 707
Stream size : 36.8 KiB (0)
Title : Russian [Full]
Language : Russian
Default : No
Forced : No

Text #16
ID : 17
Format : UTF-8
Codec ID : S_TEXT/UTF8
Codec ID/Info : UTF-8 Plain Text
Duration : 55 min 14 s
Bit rate : 79 b/s
Count of elements : 714
Stream size : 32.2 KiB (0)
Title : Hebrew [Full]
Language : Hebrew
Default : No
Forced : No

Text #17
ID : 18
Format : UTF-8
Codec ID : S_TEXT/UTF8
Codec ID/Info : UTF-8 Plain Text
Duration : 55 min 14 s
Bit rate : 89 b/s
Count of elements : 714
Stream size : 36.1 KiB (0)
Title : Arabic [Full]
Language : Arabic
Default : No
Forced : No

Text #18
ID : 19
Format : UTF-8
Codec ID : S_TEXT/UTF8
Codec ID/Info : UTF-8 Plain Text
Duration : 55 min 14 s
Bit rate : 136 b/s
Count of elements : 714
Stream size : 55.2 KiB (0)
Title : Hindi [Full]
Language : Hindi
Default : No
Forced : No

Text #19
ID : 20
Format : UTF-8
Codec ID : S_TEXT/UTF8
Codec ID/Info : UTF-8 Plain Text
Duration : 55 min 14 s
Bit rate : 150 b/s
Count of elements : 714
Stream size : 61.1 KiB (0)
Title : Tamil [Full]
Language : Tamil
Default : No
Forced : No

Text #20
ID : 21
Format : UTF-8
Codec ID : S_TEXT/UTF8
Codec ID/Info : UTF-8 Plain Text
Duration : 55 min 14 s
Bit rate : 145 b/s
Count of elements : 714
Stream size : 59.0 KiB (0)
Title : Telugu [Full]
Language : Telugu
Default : No
Forced : No

Text #21
ID : 22
Format : UTF-8
Codec ID : S_TEXT/UTF8
Codec ID/Info : UTF-8 Plain Text
Duration : 55 min 14 s
Bit rate : 43 b/s
Count of elements : 711
Stream size : 17.5 KiB (0)
Title : Indonesian [Full]
Language : Indonesian
Default : No
Forced : No

Text #22
ID : 23
Format : UTF-8
Codec ID : S_TEXT/UTF8
Codec ID/Info : UTF-8 Plain Text
Duration : 55 min 14 s
Bit rate : 122 b/s
Count of elements : 714
Stream size : 49.4 KiB (0)
Title : Thai [Full]
Language : Thai
Default : No
Forced : No

Text #23
ID : 24
Format : UTF-8
Codec ID : S_TEXT/UTF8
Codec ID/Info : UTF-8 Plain Text
Duration : 55 min 14 s
Bit rate : 55 b/s
Count of elements : 714
Stream size : 22.5 KiB (0)
Title : Korean [Full]
Language : Korean
Default : No
Forced : No

Text #24
ID : 25
Format : UTF-8
Codec ID : S_TEXT/UTF8
Codec ID/Info : UTF-8 Plain Text
Duration : 55 min 14 s
Bit rate : 50 b/s
Count of elements : 714
Stream size : 20.3 KiB (0)
Title : Chinese (Simplified) [Full]
Language : Chinese
Default : No
Forced : No

Text #25
ID : 26
Format : UTF-8
Codec ID : S_TEXT/UTF8
Codec ID/Info : UTF-8 Plain Text
Duration : 55 min 14 s
Bit rate : 45 b/s
Count of elements : 714
Stream size : 18.4 KiB (0)
Title : Chinese (Traditional) [Full]
Language : Chinese
Default : No
Forced : No

Text #26
ID : 27
Format : UTF-8
Codec ID : S_TEXT/UTF8
Codec ID/Info : UTF-8 Plain Text
Duration : 55 min 15 s
Bit rate : 42 b/s
Count of elements : 664
Stream size : 17.2 KiB (0)
Title : Japanese [Full]
Language : Japanese
Default : No
Forced : No

Menu
00:00:00.000 : en:Amazon Original
00:00:05.000 : en:Patty does an interview
00:01:59.000 : en:Title Sequence
00:02:07.000 : en:JT looks for weak links
00:03:46.000 : en:A run-in with Diana
00:06:48.000 : en:A rumor about Littlecrow
00:10:37.000 : en:Where is Dolores
00:11:31.000 : en:Stephanie visits with her father
00:14:43.000 : en:Gene gets an unexpected visitor
00:18:31.000 : en:A class-action meeting
00:23:40.000 : en:Wheeler threatens Diana
00:27:08.000 : en:Gene tells Billy how he feels
00:29:22.000 : en:The writing's on the wall
00:33:05.000 : en:A business meeting gone wrong
00:38:04.000 : en:Finding a replacement for Gene
00:39:32.000 : en:Stephanie tells Billy the news
00:42:11.000 : en:Anton delivers a message
00:43:02.000 : en:Patty tries to convince Violet
00:45:18.000 : en:Wade and Billy prepare for war
00:48:20.000 : en:JT gets spooked
00:49:30.000 : en:Wade confronts his sister
00:52:16.000 : en:An unexpected guest
00:55:23.000 : en:End Credits
Ocena użytkowników Help
Działa(0) | Fake(0) | Nie działa(0) | Wymagane hasło(0) | Wirus(0)
Statystyki seed/leech Ostatnio aktualizowane: 2020-04-25 22:38:57 [Aktualizuj]
Napisano: 09.03.2021 08:18
 
Nikt jeszcze nie skomentował tego torrenta... Może Ty to zrobisz?
Oświadczenie: Pliki prezentowane w katalogu nie znajdują się na serwerach wortalu. Użytkownicy zezwolili na ich udostępnienie. Administrator serwisu BitNova.info oraz właściciel serwera nie może ponieść konsekwencji za to co użytkownicy udostępniają i publikują. Pamiętaj! Nie możesz używać tego serwisu do rozpowszechniania lub ściągania materiałów do których nie masz odpowiednich praw lub licencji. Użytkownicy są odpowiedzialni za przestrzeganie tych zasad.

(Disclaimer: None files presented in the directory aren't hosted on servers vortal. Users allow their release. The administrator of site BitNova.info and owner of the server can not be held responsible for what its users post, or any other actions of its users. You may not use this site to distribute or download any material when you do not have the legal rights to do so. It is your own responsibility to adhere to these terms.)
» Zgłaszanie nadużyć / Abuse