Jedyny taki katalog polskich torrentów w sieci. Najlepsze torrenty w jednym miejscu.

Korzystanie ze strony jest darmowe. W przeciwieństwie do konkurencji nie kasujemy kont użytkowników bez ich wyraźnej prośby.


Torrent: Goliath [S02] [2160p] [AMZN] [WEB] [x265] [10bit] [HDR] [SKGTV] [Napisy PL]

Goliath [S02] [2160p] [AMZN] [WEB] [x265] [10bit] [HDR] [SKGTV] [Napisy PL] torrent
Dodał: Ishimura
24.04.2020 16:05
Kategoria: Seriale obyczajowe

Rozmiar: 0.00 KB
Seed'ów: (?)
Leecher'ów: (?)
Pobrań: (?)

Kondycja:
 


» Komentarze [0]
» Obserwuj
» Zgłoś plik
Info

Produkcja: USA
Gatunek: Dramat, Prawniczy
Twórcy: David E. Kelley, Jonathan Shapiro
Platforma: Amazon Prime
Premiera: 14.10.2016

Opis

Zhańbiony adwokat postanawia zniszczyć kancelarię, którą sam pomógł stworzyć.

Obsada

https://www.youtube.com/watch?v=jxzr82pLJQE

Dane Techniczne

Video
ID : 1
Format : HEVC
Format/Info : High Efficiency Video Coding
Format profile : Main 10L5Main
HDR format : SMPTE ST 2094 App 4, Version 0
Codec ID : V_MPEGH/ISO/HEVC
Duration : 59 min 23 s
Bit rate : 14.6 Mb/s
Width : 3 840 pixels
Height : 2 160 pixels
Display aspect ratio : 16:9
Frame rate mode : Constant
Frame rate : 23.976 (24000/1001) FPS
Standard : NTSC
Color space : YUV
Chroma subsampling : 4:2:0 (Type 2)
Bit depth : 10 bits
Bits/(PixelFrame) : 0.074
Stream size : 6.06 GiB (96)
Default : Yes
Forced : No
Color range : Limited
Color primaries : BT.2020
Transfer characteristics : PQ
Matrix coefficients : BT.2020 non-constant
Mastering display color primaries : Display P3
Mastering display luminance : min: 0.0001 cd/m2, max: 1000 cd/m2
Maximum Content Light Level : 889 cd/m2
Maximum Frame-Average Light Level : 113 cd/m2

Audio
ID : 28
Format : E-AC-3
Format/Info : Enhanced AC-3
Commercial name : Dolby Digital Plus
Codec ID : A_EAC3
Duration : 59 min 23 s
Bit rate mode : Constant
Bit rate : 640 kb/s
Channel(s) : 6 channels
Channel layout : L R C LFE Ls Rs
Sampling rate : 48.0 kHz
Frame rate : 31.250 FPS (1536 SPF)
Compression mode : Lossy
Stream size : 272 MiB (4)
Language : English
Service kind : Complete Main
Default : Yes
Forced : No

Text #1
ID : 2
Format : UTF-8
Codec ID : S_TEXT/UTF8
Codec ID/Info : UTF-8 Plain Text
Duration : 59 min 4 s
Bit rate : 55 b/s
Count of elements : 883
Stream size : 24.2 KiB (0)
Title : English [SDH]
Language : English
Default : No
Forced : No

Text #2
ID : 3
Format : UTF-8
Codec ID : S_TEXT/UTF8
Codec ID/Info : UTF-8 Plain Text
Duration : 55 min 33 s
Bit rate : 55 b/s
Count of elements : 722
Stream size : 22.6 KiB (0)
Title : Castilian [Full]
Language : Spanish
Default : No
Forced : No

Text #3
ID : 4
Format : UTF-8
Codec ID : S_TEXT/UTF8
Codec ID/Info : UTF-8 Plain Text
Duration : 55 min 33 s
Bit rate : 55 b/s
Count of elements : 722
Stream size : 22.4 KiB (0)
Title : Spanish [Full]
Language : Spanish
Default : No
Forced : No

Text #4
ID : 5
Format : UTF-8
Codec ID : S_TEXT/UTF8
Codec ID/Info : UTF-8 Plain Text
Duration : 54 min 31 s
Bit rate : 54 b/s
Count of elements : 721
Stream size : 21.7 KiB (0)
Title : French [Full]
Language : French
Default : No
Forced : No

Text #5
ID : 6
Format : UTF-8
Codec ID : S_TEXT/UTF8
Codec ID/Info : UTF-8 Plain Text
Duration : 54 min 32 s
Bit rate : 55 b/s
Count of elements : 542
Stream size : 22.3 KiB (0)
Title : German [Full]
Language : German
Default : No
Forced : No

Text #6
ID : 7
Format : UTF-8
Codec ID : S_TEXT/UTF8
Codec ID/Info : UTF-8 Plain Text
Duration : 55 min 33 s
Bit rate : 57 b/s
Count of elements : 721
Stream size : 23.3 KiB (0)
Title : Italian [Full]
Language : Italian
Default : No
Forced : No

Text #7
ID : 8
Format : UTF-8
Codec ID : S_TEXT/UTF8
Codec ID/Info : UTF-8 Plain Text
Duration : 55 min 33 s
Bit rate : 54 b/s
Count of elements : 723
Stream size : 22.3 KiB (0)
Title : Brazilian Portuguese [Full]
Language : Portuguese
Default : No
Forced : No

Text #8
ID : 9
Format : UTF-8
Codec ID : S_TEXT/UTF8
Codec ID/Info : UTF-8 Plain Text
Duration : 55 min 33 s
Bit rate : 57 b/s
Count of elements : 722
Stream size : 23.3 KiB (0)
Title : Polish [Full]
Language : Polish
Default : No
Forced : No

Text #9
ID : 10
Format : UTF-8
Codec ID : S_TEXT/UTF8
Codec ID/Info : UTF-8 Plain Text
Duration : 55 min 33 s
Bit rate : 56 b/s
Count of elements : 722
Stream size : 23.1 KiB (0)
Title : Turkish [Full]
Language : Turkish
Default : No
Forced : No

Text #10
ID : 11
Format : UTF-8
Codec ID : S_TEXT/UTF8
Codec ID/Info : UTF-8 Plain Text
Duration : 55 min 33 s
Bit rate : 52 b/s
Count of elements : 722
Stream size : 21.5 KiB (0)
Title : Swedish [Full]
Language : Swedish
Default : No
Forced : No

Text #11
ID : 12
Format : UTF-8
Codec ID : S_TEXT/UTF8
Codec ID/Info : UTF-8 Plain Text
Duration : 54 min 31 s
Bit rate : 54 b/s
Count of elements : 718
Stream size : 21.8 KiB (0)
Title : Danish [Full]
Language : Danish
Default : No
Forced : No

Text #12
ID : 13
Format : UTF-8
Codec ID : S_TEXT/UTF8
Codec ID/Info : UTF-8 Plain Text
Duration : 55 min 33 s
Bit rate : 53 b/s
Count of elements : 723
Stream size : 21.9 KiB (0)
Title : Finnish [Full]
Language : Finnish
Default : No
Forced : No

Text #13
ID : 14
Format : UTF-8
Codec ID : S_TEXT/UTF8
Codec ID/Info : UTF-8 Plain Text
Duration : 55 min 33 s
Bit rate : 55 b/s
Count of elements : 685
Stream size : 22.5 KiB (0)
Title : Dutch [Full]
Language : Dutch
Default : No
Forced : No

Text #14
ID : 15
Format : UTF-8
Codec ID : S_TEXT/UTF8
Codec ID/Info : UTF-8 Plain Text
Duration : 55 min 33 s
Bit rate : 53 b/s
Count of elements : 723
Stream size : 21.8 KiB (0)
Title : Norwegian (Bokm?l) [Full]
Language : Norwegian Bokmal
Default : No
Forced : No

Text #15
ID : 16
Format : UTF-8
Codec ID : S_TEXT/UTF8
Codec ID/Info : UTF-8 Plain Text
Duration : 55 min 33 s
Bit rate : 92 b/s
Count of elements : 726
Stream size : 37.6 KiB (0)
Title : Russian [Full]
Language : Russian
Default : No
Forced : No

Text #16
ID : 17
Format : UTF-8
Codec ID : S_TEXT/UTF8
Codec ID/Info : UTF-8 Plain Text
Duration : 55 min 33 s
Bit rate : 66 b/s
Count of elements : 662
Stream size : 27.2 KiB (0)
Title : Hebrew [Full]
Language : Hebrew
Default : No
Forced : No

Text #17
ID : 18
Format : UTF-8
Codec ID : S_TEXT/UTF8
Codec ID/Info : UTF-8 Plain Text
Duration : 55 min 33 s
Bit rate : 87 b/s
Count of elements : 726
Stream size : 35.7 KiB (0)
Title : Arabic [Full]
Language : Arabic
Default : No
Forced : No

Text #18
ID : 19
Format : UTF-8
Codec ID : S_TEXT/UTF8
Codec ID/Info : UTF-8 Plain Text
Duration : 55 min 33 s
Bit rate : 136 b/s
Count of elements : 726
Stream size : 55.7 KiB (0)
Title : Hindi [Full]
Language : Hindi
Default : No
Forced : No

Text #19
ID : 20
Format : UTF-8
Codec ID : S_TEXT/UTF8
Codec ID/Info : UTF-8 Plain Text
Duration : 55 min 33 s
Bit rate : 159 b/s
Count of elements : 726
Stream size : 65.0 KiB (0)
Title : Tamil [Full]
Language : Tamil
Default : No
Forced : No

Text #20
ID : 21
Format : UTF-8
Codec ID : S_TEXT/UTF8
Codec ID/Info : UTF-8 Plain Text
Duration : 55 min 33 s
Bit rate : 145 b/s
Count of elements : 726
Stream size : 59.3 KiB (0)
Title : Telugu [Full]
Language : Telugu
Default : No
Forced : No

Text #21
ID : 22
Format : UTF-8
Codec ID : S_TEXT/UTF8
Codec ID/Info : UTF-8 Plain Text
Duration : 55 min 33 s
Bit rate : 54 b/s
Count of elements : 722
Stream size : 22.1 KiB (0)
Title : Indonesian [Full]
Language : Indonesian
Default : No
Forced : No

Text #22
ID : 23
Format : UTF-8
Codec ID : S_TEXT/UTF8
Codec ID/Info : UTF-8 Plain Text
Duration : 55 min 33 s
Bit rate : 126 b/s
Count of elements : 726
Stream size : 51.4 KiB (0)
Title : Thai [Full]
Language : Thai
Default : No
Forced : No

Text #23
ID : 24
Format : UTF-8
Codec ID : S_TEXT/UTF8
Codec ID/Info : UTF-8 Plain Text
Duration : 55 min 33 s
Bit rate : 66 b/s
Count of elements : 724
Stream size : 27.0 KiB (0)
Title : Korean [Full]
Language : Korean
Default : No
Forced : No

Text #24
ID : 25
Format : UTF-8
Codec ID : S_TEXT/UTF8
Codec ID/Info : UTF-8 Plain Text
Duration : 55 min 33 s
Bit rate : 50 b/s
Count of elements : 726
Stream size : 20.7 KiB (0)
Title : Chinese (Simplified) [Full]
Language : Chinese
Default : No
Forced : No

Text #25
ID : 26
Format : UTF-8
Codec ID : S_TEXT/UTF8
Codec ID/Info : UTF-8 Plain Text
Duration : 55 min 33 s
Bit rate : 47 b/s
Count of elements : 726
Stream size : 19.5 KiB (0)
Title : Chinese (Traditional) [Full]
Language : Chinese
Default : No
Forced : No

Text #26
ID : 27
Format : UTF-8
Codec ID : S_TEXT/UTF8
Codec ID/Info : UTF-8 Plain Text
Duration : 55 min 4 s
Bit rate : 46 b/s
Count of elements : 614
Stream size : 18.8 KiB (0)
Title : Japanese [Full]
Language : Japanese
Default : No
Forced : No

Menu
00:00:00.000 : en:Amazon Original
00:00:05.000 : en:Opening Credits
00:01:18.000 : en:Billy confronts Brittany
00:04:28.000 : en:Cooperman leaves his penthouse
00:07:32.000 : en:Cooperman takes the stand
00:13:45.000 : en:Billy visits the hospital
00:16:01.000 : en:The lawyers discuss what they should do
00:18:04.000 : en:Brittany takes the stand
00:24:12.000 : en:Michelle visits Cooperman
00:26:32.000 : en:Callie and Billy give their closing statements
00:33:56.000 : en:Lucy goes to see Cooperman
00:36:30.000 : en:Brittany tries to talk to Billy
00:37:45.000 : en:The jury makes their decision
00:40:41.000 : en:Wendell tells Billy what really happened
00:45:57.000 : en:Callie has one final thing to say to Michelle
00:47:57.000 : en:The case comes to an end
00:50:03.000 : en:Billy talks to Cooperman one last time
00:56:32.000 : en:Billy has a drink on the beach
00:57:44.000 : en:End Credits
Ocena użytkowników Help
Działa(0) | Fake(0) | Nie działa(0) | Wymagane hasło(0) | Wirus(0)
Statystyki seed/leech Ostatnio aktualizowane: 2020-04-17 16:05:47 [Aktualizuj]
Napisano: 09.03.2021 07:43
 
Nikt jeszcze nie skomentował tego torrenta... Może Ty to zrobisz?
Oświadczenie: Pliki prezentowane w katalogu nie znajdują się na serwerach wortalu. Użytkownicy zezwolili na ich udostępnienie. Administrator serwisu BitNova.info oraz właściciel serwera nie może ponieść konsekwencji za to co użytkownicy udostępniają i publikują. Pamiętaj! Nie możesz używać tego serwisu do rozpowszechniania lub ściągania materiałów do których nie masz odpowiednich praw lub licencji. Użytkownicy są odpowiedzialni za przestrzeganie tych zasad.

(Disclaimer: None files presented in the directory aren't hosted on servers vortal. Users allow their release. The administrator of site BitNova.info and owner of the server can not be held responsible for what its users post, or any other actions of its users. You may not use this site to distribute or download any material when you do not have the legal rights to do so. It is your own responsibility to adhere to these terms.)
» Zgłaszanie nadużyć / Abuse