Jedyny taki katalog polskich torrentów w sieci. Najlepsze torrenty w jednym miejscu.

Korzystanie ze strony jest darmowe. W przeciwieństwie do konkurencji nie kasujemy kont użytkowników bez ich wyraźnej prośby.


Torrent: Defending Jacob 2020 [S01E01] [2160p] [WEB] [x265] [10bit] [HDR] [DDP5.1.Atmos] [GHOSTS] [Napisy PL]

Defending Jacob 2020 [S01E01] [2160p] [WEB] [x265] [10bit] [HDR] [DDP5.1.Atmos] [GHOSTS] [Napisy PL] torrent
Dodał: Ishimura
24.04.2020 14:21
Kategoria: Seriale obyczajowe

Rozmiar: 7.89 GB
Seed'ów: 3
Leecher'ów: 1
Pobrań: 2

Kondycja:
 


» Komentarze [0]
» Obserwuj
» Zgłoś plik
Info

Produkcja: USA
Gatunek: Kryminał
Twórca: Morten Tyldum
Platforma: Apple TV+
Premiera: 24 kwietnia 2020

Opis

Życie szanowanego prokuratora, Andy'ego Barbera wywraca się do góry nogami, gdy okazuje się, że w tajemnicze morderstwo zamieszany jest jego 14-letni syn. Szokująca zbrodnia wstrząsa małym miasteczkiem w Massachusetts. Sprawa nabiera tempa, z lubianego sąsiada i stróża prawda, Barber staje się wrogiem publicznym. Sam musi podjąć decyzję, po której stronie się opowiedzieć? Sprawiedliwości czy rodzicielskiej bezwarunkowej miłości do syna?

Obsada

https://www.youtube.com/watch?v=POzLYmv

Dane Techniczne

Video
ID : 1
Format : HEVC
Format/Info : High Efficiency Video Coding
Format profile : Main 10L5High
HDR format : SMPTE ST 2086, HDR10 compatible
Codec ID : V_MPEGH/ISO/HEVC
Duration : 45 min 22 s
Bit rate : 24.1 Mb/s
Width : 3 840 pixels
Height : 1 916 pixels
Display aspect ratio : 2.004
Frame rate mode : Constant
Frame rate : 23.976 (24000/1001) FPS
Color space : YUV
Chroma subsampling : 4:2:0 (Type 2)
Bit depth : 10 bits
Bits/(PixelFrame) : 0.137
Stream size : 7.64 GiB (97)
Default : Yes
Forced : No
Color range : Limited
Color primaries : BT.2020
Transfer characteristics : PQ
Matrix coefficients : BT.2020 non-constant
Mastering display color primaries : Display P3
Mastering display luminance : min: 0.0050 cd/m2, max: 1000 cd/m2
Maximum Content Light Level : 2380 cd/m2
Maximum Frame-Average Light Level : 92 cd/m2

Audio
ID : 2
Format : E-AC-3 JOC
Format/Info : Enhanced AC-3 with Joint Object Coding
Commercial name : Dolby Digital Plus with Dolby Atmos
Codec ID : A_EAC3
Duration : 45 min 22 s
Bit rate mode : Constant
Bit rate : 768 kb/s
Channel(s) : 6 channels
Channel layout : L R C LFE Ls Rs
Sampling rate : 48.0 kHz
Frame rate : 31.250 FPS (1536 SPF)
Compression mode : Lossy
Stream size : 249 MiB (3)
Title : English
Language : English
Service kind : Complete Main
Default : Yes
Forced : No
Complexity index : 16
Number of dynamic objects : 15
Bed channel count : 1 channel
Bed channel configuration : LFE

Text #1
ID : 3
Format : UTF-8
Codec ID : S_TEXT/UTF8
Codec ID/Info : UTF-8 Plain Text
Duration : 39 min 21 s
Bit rate : 78 b/s
Count of elements : 630
Stream size : 22.6 KiB (0)
Title : English
Language : English
Default : No
Forced : No

Text #2
ID : 4
Format : UTF-8
Codec ID : S_TEXT/UTF8
Codec ID/Info : UTF-8 Plain Text
Duration : 42 min 55 s
Bit rate : 77 b/s
Count of elements : 689
Stream size : 24.4 KiB (0)
Title : English [SDH]
Language : English
Default : No
Forced : No

Text #3
ID : 5
Format : UTF-8
Codec ID : S_TEXT/UTF8
Codec ID/Info : UTF-8 Plain Text
Duration : 44 min 14 s
Bit rate : 112 b/s
Count of elements : 664
Stream size : 36.4 KiB (0)
Title : Arabic
Language : Arabic
Default : No
Forced : No

Text #4
ID : 6
Format : UTF-8
Codec ID : S_TEXT/UTF8
Codec ID/Info : UTF-8 Plain Text
Duration : 44 min 14 s
Bit rate : 101 b/s
Count of elements : 651
Stream size : 32.9 KiB (0)
Title : Bulgarian
Language : Bulgarian
Default : No
Forced : No

Text #5
ID : 7
Format : UTF-8
Codec ID : S_TEXT/UTF8
Codec ID/Info : UTF-8 Plain Text
Duration : 44 min 14 s
Bit rate : 64 b/s
Count of elements : 652
Stream size : 21.0 KiB (0)
Title : Czech
Language : Czech
Default : No
Forced : No

Text #6
ID : 8
Format : UTF-8
Codec ID : S_TEXT/UTF8
Codec ID/Info : UTF-8 Plain Text
Duration : 44 min 14 s
Bit rate : 67 b/s
Count of elements : 626
Stream size : 22.0 KiB (0)
Title : Danish
Language : Danish
Default : No
Forced : No

Text #7
ID : 9
Format : UTF-8
Codec ID : S_TEXT/UTF8
Codec ID/Info : UTF-8 Plain Text
Duration : 44 min 14 s
Bit rate : 57 b/s
Count of elements : 598
Stream size : 18.6 KiB (0)
Title : Dutch
Language : Dutch
Default : No
Forced : No

Text #8
ID : 10
Format : UTF-8
Codec ID : S_TEXT/UTF8
Codec ID/Info : UTF-8 Plain Text
Duration : 44 min 14 s
Bit rate : 63 b/s
Count of elements : 661
Stream size : 20.5 KiB (0)
Title : Estonian
Language : Estonian
Default : No
Forced : No

Text #9
ID : 11
Format : UTF-8
Codec ID : S_TEXT/UTF8
Codec ID/Info : UTF-8 Plain Text
Duration : 44 min 14 s
Bit rate : 63 b/s
Count of elements : 660
Stream size : 20.6 KiB (0)
Title : Finnish
Language : Finnish
Default : No
Forced : No

Text #10
ID : 12
Format : UTF-8
Codec ID : S_TEXT/UTF8
Codec ID/Info : UTF-8 Plain Text
Duration : 44 min 5 s
Bit rate : 62 b/s
Count of elements : 646
Stream size : 20.1 KiB (0)
Title : French
Language : French
Default : No
Forced : No

Text #11
ID : 13
Format : UTF-8
Codec ID : S_TEXT/UTF8
Codec ID/Info : UTF-8 Plain Text
Duration : 44 min 5 s
Bit rate : 62 b/s
Count of elements : 646
Stream size : 20.1 KiB (0)
Title : French Canadian
Language : French
Default : No
Forced : No

Text #12
ID : 14
Format : UTF-8
Codec ID : S_TEXT/UTF8
Codec ID/Info : UTF-8 Plain Text
Duration : 44 min 5 s
Bit rate : 62 b/s
Count of elements : 646
Stream size : 20.1 KiB (0)
Title : Canadian French
Language : French
Default : No
Forced : No

Text #13
ID : 15
Format : UTF-8
Codec ID : S_TEXT/UTF8
Codec ID/Info : UTF-8 Plain Text
Duration : 44 min 5 s
Bit rate : 58 b/s
Count of elements : 637
Stream size : 18.9 KiB (0)
Title : German
Language : German
Default : No
Forced : No

Text #14
ID : 16
Format : UTF-8
Codec ID : S_TEXT/UTF8
Codec ID/Info : UTF-8 Plain Text
Duration : 44 min 14 s
Bit rate : 110 b/s
Count of elements : 664
Stream size : 35.9 KiB (0)
Title : Greek
Language : Greek
Default : No
Forced : No

Text #15
ID : 17
Format : UTF-8
Codec ID : S_TEXT/UTF8
Codec ID/Info : UTF-8 Plain Text
Duration : 44 min 14 s
Bit rate : 98 b/s
Count of elements : 664
Stream size : 31.8 KiB (0)
Title : Hebrew
Language : Hebrew
Default : No
Forced : No

Text #16
ID : 18
Format : UTF-8
Codec ID : S_TEXT/UTF8
Codec ID/Info : UTF-8 Plain Text
Duration : 44 min 14 s
Bit rate : 176 b/s
Count of elements : 665
Stream size : 57.3 KiB (0)
Title : Hindi
Language : Hindi
Default : No
Forced : No

Text #17
ID : 19
Format : UTF-8
Codec ID : S_TEXT/UTF8
Codec ID/Info : UTF-8 Plain Text
Duration : 44 min 14 s
Bit rate : 66 b/s
Count of elements : 662
Stream size : 21.6 KiB (0)
Title : Hungarian
Language : Hungarian
Default : No
Forced : No

Text #18
ID : 20
Format : UTF-8
Codec ID : S_TEXT/UTF8
Codec ID/Info : UTF-8 Plain Text
Duration : 44 min 14 s
Bit rate : 68 b/s
Count of elements : 662
Stream size : 22.2 KiB (0)
Title : Indonesian
Language : Indonesian
Default : No
Forced : No

Text #19
ID : 21
Format : UTF-8
Codec ID : S_TEXT/UTF8
Codec ID/Info : UTF-8 Plain Text
Duration : 44 min 7 s
Bit rate : 71 b/s
Count of elements : 611
Stream size : 23.2 KiB (0)
Title : Italian
Language : Italian
Default : No
Forced : No

Text #20
ID : 22
Format : UTF-8
Codec ID : S_TEXT/UTF8
Codec ID/Info : UTF-8 Plain Text
Duration : 44 min 14 s
Bit rate : 54 b/s
Count of elements : 663
Stream size : 17.6 KiB (0)
Title : Japanese
Language : Japanese
Default : No
Forced : No

Text #21
ID : 23
Format : UTF-8
Codec ID : S_TEXT/UTF8
Codec ID/Info : UTF-8 Plain Text
Duration : 44 min 14 s
Bit rate : 67 b/s
Count of elements : 663
Stream size : 21.9 KiB (0)
Title : Lithuanian
Language : Lithuanian
Default : No
Forced : No

Text #22
ID : 24
Format : UTF-8
Codec ID : S_TEXT/UTF8
Codec ID/Info : UTF-8 Plain Text
Duration : 44 min 14 s
Bit rate : 68 b/s
Count of elements : 664
Stream size : 22.2 KiB (0)
Title : Latvian
Language : Latvian
Default : No
Forced : No

Text #23
ID : 25
Format : UTF-8
Codec ID : S_TEXT/UTF8
Codec ID/Info : UTF-8 Plain Text
Duration : 44 min 14 s
Bit rate : 73 b/s
Count of elements : 662
Stream size : 23.7 KiB (0)
Title : Malay
Language : Malay
Default : No
Forced : No

Text #24
ID : 26
Format : UTF-8
Codec ID : S_TEXT/UTF8
Codec ID/Info : UTF-8 Plain Text
Duration : 44 min 14 s
Bit rate : 63 b/s
Count of elements : 665
Stream size : 20.6 KiB (0)
Title : Simplified Chinese
Language : Chinese
Default : No
Forced : No

Text #25
ID : 27
Format : UTF-8
Codec ID : S_TEXT/UTF8
Codec ID/Info : UTF-8 Plain Text
Duration : 44 min 14 s
Bit rate : 66 b/s
Count of elements : 666
Stream size : 21.4 KiB (0)
Title : Traditional Chinese
Language : Chinese
Default : No
Forced : No

Text #26
ID : 28
Format : UTF-8
Codec ID : S_TEXT/UTF8
Codec ID/Info : UTF-8 Plain Text
Duration : 44 min 14 s
Bit rate : 70 b/s
Count of elements : 666
Stream size : 22.9 KiB (0)
Title : (Yue Chinese)
Language : Chinese
Default : No
Forced : No

Text #27
ID : 29
Format : UTF-8
Codec ID : S_TEXT/UTF8
Codec ID/Info : UTF-8 Plain Text
Duration : 44 min 14 s
Bit rate : 62 b/s
Count of elements : 660
Stream size : 20.3 KiB (0)
Title : Polish
Language : Polish
Default : No
Forced : No

Text #28
ID : 30
Format : UTF-8
Codec ID : S_TEXT/UTF8
Codec ID/Info : UTF-8 Plain Text
Duration : 44 min 14 s
Bit rate : 74 b/s
Count of elements : 661
Stream size : 24.1 KiB (0)
Title : Portuguese
Language : Portuguese
Default : No
Forced : No

Text #29
ID : 31
Format : UTF-8
Codec ID : S_TEXT/UTF8
Codec ID/Info : UTF-8 Plain Text
Duration : 44 min 14 s
Bit rate : 60 b/s
Count of elements : 663
Stream size : 19.7 KiB (0)
Title : Brazilian Portuguese
Language : Portuguese
Default : No
Forced : No

Text #30
ID : 32
Format : UTF-8
Codec ID : S_TEXT/UTF8
Codec ID/Info : UTF-8 Plain Text
Duration : 44 min 14 s
Bit rate : 112 b/s
Count of elements : 665
Stream size : 36.5 KiB (0)
Title : Russian
Language : Russian
Default : No
Forced : No

Text #31
ID : 33
Format : UTF-8
Codec ID : S_TEXT/UTF8
Codec ID/Info : UTF-8 Plain Text
Duration : 44 min 14 s
Bit rate : 63 b/s
Count of elements : 661
Stream size : 20.5 KiB (0)
Title : Slovak
Language : Slovak
Default : No
Forced : No

Text #32
ID : 34
Format : UTF-8
Codec ID : S_TEXT/UTF8
Codec ID/Info : UTF-8 Plain Text
Duration : 44 min 14 s
Bit rate : 55 b/s
Count of elements : 662
Stream size : 18.1 KiB (0)
Title : Slovenian
Language : Slovenian
Default : No
Forced : No

Text #33
ID : 35
Format : UTF-8
Codec ID : S_TEXT/UTF8
Codec ID/Info : UTF-8 Plain Text
Duration : 43 min 42 s
Bit rate : 70 b/s
Count of elements : 658
Stream size : 22.4 KiB (0)
Title : Latin America Spanish
Language : Spanish
Default : No
Forced : No

Text #34
ID : 36
Format : UTF-8
Codec ID : S_TEXT/UTF8
Codec ID/Info : UTF-8 Plain Text
Duration : 44 min 14 s
Bit rate : 69 b/s
Count of elements : 697
Stream size : 22.4 KiB (0)
Title : European Spanish
Language : Spanish
Default : No
Forced : No

Text #35
ID : 37
Format : UTF-8
Codec ID : S_TEXT/UTF8
Codec ID/Info : UTF-8 Plain Text
Duration : 44 min 14 s
Bit rate : 66 b/s
Count of elements : 662
Stream size : 21.7 KiB (0)
Title : Swedish
Language : Swedish
Default : No
Forced : No

Text #36
ID : 38
Format : UTF-8
Codec ID : S_TEXT/UTF8
Codec ID/Info : UTF-8 Plain Text
Duration : 44 min 14 s
Bit rate : 236 b/s
Count of elements : 664
Stream size : 76.6 KiB (0)
Title : Tamil
Language : Tamil
Default : No
Forced : No

Text #37
ID : 39
Format : UTF-8
Codec ID : S_TEXT/UTF8
Codec ID/Info : UTF-8 Plain Text
Duration : 44 min 14 s
Bit rate : 202 b/s
Count of elements : 664
Stream size : 65.5 KiB (0)
Title : Telugu
Language : Telugu
Default : No
Forced : No

Text #38
ID : 40
Format : UTF-8
Codec ID : S_TEXT/UTF8
Codec ID/Info : UTF-8 Plain Text
Duration : 44 min 14 s
Bit rate : 176 b/s
Count of elements : 664
Stream size : 57.2 KiB (0)
Title : Thai
Language : Thai
Default : No
Forced : No

Text #39
ID : 41
Format : UTF-8
Codec ID : S_TEXT/UTF8
Codec ID/Info : UTF-8 Plain Text
Duration : 44 min 14 s
Bit rate : 103 b/s
Count of elements : 665
Stream size : 33.5 KiB (0)
Title : Ukrainian
Language : Ukrainian
Default : No
Forced : No

Text #40
ID : 42
Format : UTF-8
Codec ID : S_TEXT/UTF8
Codec ID/Info : UTF-8 Plain Text
Duration : 44 min 14 s
Bit rate : 95 b/s
Count of elements : 663
Stream size : 31.0 KiB (0)
Title : Vietnamese
Language : Vietnamese
Default : No
Forced : No
Ocena użytkowników Help
Działa(0) | Fake(0) | Nie działa(0) | Wymagane hasło(0) | Wirus(0)
Statystyki seed/leech Ostatnio aktualizowane: 2021-01-28 17:34:26 [Aktualizuj]
Napisano: 12.04.2021 14:22
 
Nikt jeszcze nie skomentował tego torrenta... Może Ty to zrobisz?
Oświadczenie: Pliki prezentowane w katalogu nie znajdują się na serwerach wortalu. Użytkownicy zezwolili na ich udostępnienie. Administrator serwisu BitNova.info oraz właściciel serwera nie może ponieść konsekwencji za to co użytkownicy udostępniają i publikują. Pamiętaj! Nie możesz używać tego serwisu do rozpowszechniania lub ściągania materiałów do których nie masz odpowiednich praw lub licencji. Użytkownicy są odpowiedzialni za przestrzeganie tych zasad.

(Disclaimer: None files presented in the directory aren't hosted on servers vortal. Users allow their release. The administrator of site BitNova.info and owner of the server can not be held responsible for what its users post, or any other actions of its users. You may not use this site to distribute or download any material when you do not have the legal rights to do so. It is your own responsibility to adhere to these terms.)
» Zgłaszanie nadużyć / Abuse