Jedyny taki katalog polskich torrentów w sieci. Najlepsze torrenty w jednym miejscu.

Korzystanie ze strony jest darmowe. W przeciwieństwie do konkurencji nie kasujemy kont użytkowników bez ich wyraźnej prośby.


Torrent: Halloween (1978-2009) [Kolekcja] [DVDRip] [XviD] [Lektor PL] v62

Halloween (1978-2009) [Kolekcja] [DVDRip] [XviD] [Lektor PL] v62 torrent
Dodał: viola62
01.04.2020 17:34
Kategoria: Horror

Rozmiar: 7.80 GB
Seed'ów: 0
Leecher'ów: 2
Pobrań: 0

Kondycja:
 


» Komentarze [0]
» Obserwuj
» Zgłoś plik
...( Info )...

Reżyseria: John Carpenter
Scenariusz: John Carpenter, Debra Hill
Produkcja: Moustapha Akkad
Gatunek: horror,thriller
Kraj produkcji: USA
Data premiery: 25 października 1978
Czas trwania : 91 minut

...( Opis )...

Film Halloween powstał w 1978 roku i wyreżyserował go legendarny John Carpenter. Produkcja, mimo skromnego budżetu, zarobiła jego wielokrotność, więc nic dziwnego, że podjęto decyzję o kontynuacji, która powstała jednak dopiero w 1982 roku.Do dzisiaj seria Halloween składa się z ośmiu części oraz dwóch remake'ów, które wyreżyserował słynny amerykański muzyk heavymetalowy, Rob Zombie. Od lat mówi się o tym, że Zombie zrealizuje także trzeci remake Halloween, jednak do tej pory ten pomysł pozostał w sferze planów.Wytworem filmu Halloween jest postać Michaela Myersa. Chory psychicznie i bezwzględny morderca, wraz ze swoją charakterystyczną maską, stał się już popkulturową ikoną oraz symbolem horroru, podobnie jak chociażby Jason Voorhees z serii Piątek 13-tego. Nawiązania do jego osoby pojawiają się w licznych produkcjach, z czego najciekawiej uczynił to nieodżałowany Wes Craven w swoim (już także kultowym) Krzyku, gdzie bohaterowie debatowali na temat piersi Jamie Lee Curtis, a pokazywane na ekranie telewizora Halloween był świadkiem filmowego morderstwa. Zresztą jako ciekawostkę można dodać, iż zrewanżowano się w Filmie Halloween 20 lat później wyświetlany jest fragment filmu Krzyk 2.

...( Obsada )...

Donald Pleasence......dr. Sam Loomis
Jamie Lee Curtis......Laurie Strode
Nancy Kyes............Annie Brackett
P.J. Soles............Lynda van der Klok
Charles Cyphers.......szeryf Leigh Brackett

...( Dane Techniczne )...

Format : AVI
Format/Info : Audio Video Interleave
File size : 697 MiB
Duration : 1 h 41 min
Overall bit rate mode : Variable
Overall bit rate : 964 kb/s
Writing application : VirtualDubMod 1.6.0.0 SURROUND (build 2560/release)
Writing library : VirtualDubMod build 2560/release

Video
ID : 0
Format : MPEG-4 Visual
Format profile : Advanced Simple@L5
Format settings : BVOP2
Format settings, BVOP : 2
Format settings, QPel : No
Format settings, GMC : No warppoints
Format settings, Matrix : Default (MPEG)
Muxing mode : Packed bitstream
Codec ID : XVID
Codec ID/Hint : XviD
Duration : 1 h 41 min
Bit rate : 850 kb/s
Width : 640 pixels
Height : 272 pixels
Display aspect ratio : 2.35:1
Frame rate : 23.976 (24000/1001) FPS
Color space : YUV
Chroma subsampling : 4:2:0
Bit depth : 8 bits
Scan type : Progressive
Compression mode : Lossy
Bits/(Pixel*Frame) : 0.204
Stream size : 614 MiB (88%)
Writing library : XviD 1.2.0.dev47 (UTC 2006-11-01)

Audio
ID : 1
Format : MPEG Audio
Format version : Version 1
Format profile : Layer 3
Format settings : Joint stereo / MS Stereo
Codec ID : 55
Codec ID/Hint : MP3
Duration : 1 h 41 min
Bit rate mode : Variable
Bit rate : 101 kb/s
Nominal bit rate : 128 kb/s
Channel(s) : 2 channels
Sampling rate : 48.0 kHz
Frame rate : 41.667 FPS (1152 SPF)
Compression mode : Lossy
Stream size : 73.1 MiB (10%)
Alignment : Aligned on interleaves
Interleave, duration : 24 ms (0.58 video frame)
Interleave, preload duratio : 455 ms
Writing library : LAME3.97b
Encoding settings : -m j -V 4 -q 2 -lowpass 17 --abr 128

=======================================================

PS ...Opis dotyczy pliku " Halloween (1978) "



Ocena użytkowników Help
Działa(0) | Fake(0) | Nie działa(0) | Wymagane hasło(0) | Wirus(0)
Statystyki seed/leech Ostatnio aktualizowane: 2021-01-11 00:16:25 [Aktualizuj]
Napisano: 17.10.2021 15:39
 
Nikt jeszcze nie skomentował tego torrenta... Może Ty to zrobisz?
Oświadczenie: Pliki prezentowane w katalogu nie znajdują się na serwerach wortalu. Użytkownicy zezwolili na ich udostępnienie. Administrator serwisu BitNova.info oraz właściciel serwera nie może ponieść konsekwencji za to co użytkownicy udostępniają i publikują. Pamiętaj! Nie możesz używać tego serwisu do rozpowszechniania lub ściągania materiałów do których nie masz odpowiednich praw lub licencji. Użytkownicy są odpowiedzialni za przestrzeganie tych zasad.

(Disclaimer: None files presented in the directory aren't hosted on servers vortal. Users allow their release. The administrator of site BitNova.info and owner of the server can not be held responsible for what its users post, or any other actions of its users. You may not use this site to distribute or download any material when you do not have the legal rights to do so. It is your own responsibility to adhere to these terms.)
» Zgłaszanie nadużyć / Abuse