Jedyny taki katalog polskich torrentów w sieci. Najlepsze torrenty w jednym miejscu.

Korzystanie ze strony jest darmowe. W przeciwieństwie do konkurencji nie kasujemy kont użytkowników bez ich wyraźnej prośby.


Torrent: Amazing Stories 2020 [S01E02] [720p] [ATVP] [WEB] [DDP5] [x264] [CasStudio] [Napisy PL]

Amazing Stories 2020 [S01E02] [720p] [ATVP] [WEB] [DDP5] [x264] [CasStudio] [Napisy PL] torrent
Dodał: Ishimura
24.03.2020 21:59
Kategoria: Seriale obyczajowe

Rozmiar: 1.72 GB
Seed'ów: 1
Leecher'ów: 0
Pobrań: 0

Kondycja:
 


» Komentarze [0]
» Obserwuj
» Zgłoś plik
Info

Produkcja: USA
Gatunek: Przygodowy
Producent: Edward Kitsis
Platforma: Apple TV
Premiera: 6.03.2020

Opis

Amazing Stories to nadchodząca amerykańska seria antologii telewizji internetowej oparta na serialu telewizyjnym z 1985 roku o tej samej nazwie, stworzonym przez Stevena Spielberga. Serial jest produkowany dla Apple TV +, a producentami wykonawczymi serialu są Spielberg, Edward Kitsis, Adam Horowitz, Darryl Frank i Justin Falvey.

Edward Burns ... Bill Kaminski
James Healy Jr. ... Dyrektor szkolny
Henry Bazemore Jr. ... Zastępca szeryfa
Andrew Benator ........ Milberg
Jay DeVon Johnson ....... Komendat policji McClarty

Dane Techniczne

Video
ID : 1
Format : AVC
Format/Info : Advanced Video Codec
Format profile : HighL3.1
Format settings : CABAC / 5 Ref Frames
Format settings, CABAC : Yes
Format settings, Reference frames : 5 frames
Codec ID : V_MPEG4/ISO/AVC
Duration : 52 min 34 s
Bit rate : 2 876 kb/s
Width : 1 280 pixels
Height : 720 pixels
Display aspect ratio : 16:9
Frame rate mode : Constant
Frame rate : 23.976 (24000/1001) FPS
Color space : YUV
Chroma subsampling : 4:2:0
Bit depth : 8 bits
Scan type : Progressive
Bits/(PixelFrame) : 0.130
Stream size : 1.06 GiB (79)
Language : English
Default : Yes
Forced : No
Color range : Limited
Color primaries : BT.709
Transfer characteristics : BT.709
Matrix coefficients : BT.709

Audio
ID : 2
Format : E-AC-3 JOC
Format/Info : Enhanced AC-3 with Joint Object Coding
Commercial name : Dolby Digital Plus with Dolby Atmos
Codec ID : A_EAC3
Duration : 52 min 34 s
Bit rate mode : Constant
Bit rate : 768 kb/s
Channel(s) : 6 channels
Channel layout : L R C LFE Ls Rs
Sampling rate : 48.0 kHz
Frame rate : 31.250 FPS (1536 SPF)
Compression mode : Lossy
Stream size : 289 MiB (21)
Language : English
Service kind : Complete Main
Default : Yes
Forced : No
Complexity index : 16
Number of dynamic objects : 15
Bed channel count : 1 channel
Bed channel configuration : LFE

Text #1
ID : 3
Format : UTF-8
Codec ID : S_TEXT/UTF8
Codec ID/Info : UTF-8 Plain Text
Duration : 48 min 14 s
Bit rate : 56 b/s
Count of elements : 586
Stream size : 20.1 KiB (0)
Language : English
Default : No
Forced : No

Text #2
ID : 4
Format : UTF-8
Codec ID : S_TEXT/UTF8
Codec ID/Info : UTF-8 Plain Text
Duration : 51 min 4 s
Bit rate : 60 b/s
Count of elements : 705
Stream size : 22.7 KiB (0)
Title : English (SDH)
Language : English
Default : No
Forced : No

Text #3
ID : 5
Format : UTF-8
Codec ID : S_TEXT/UTF8
Codec ID/Info : UTF-8 Plain Text
Duration : 51 min 15 s
Bit rate : 72 b/s
Count of elements : 615
Stream size : 27.3 KiB (0)
Language : Arabic
Default : No
Forced : No

Text #4
ID : 6
Format : UTF-8
Codec ID : S_TEXT/UTF8
Codec ID/Info : UTF-8 Plain Text
Duration : 51 min 15 s
Bit rate : 75 b/s
Count of elements : 612
Stream size : 28.4 KiB (0)
Language : Bulgarian
Default : No
Forced : No

Text #5
ID : 7
Format : UTF-8
Codec ID : S_TEXT/UTF8
Codec ID/Info : UTF-8 Plain Text
Duration : 51 min 23 s
Bit rate : 48 b/s
Count of elements : 616
Stream size : 18.3 KiB (0)
Title : Cantonese (Traditional)
Language : Chinese
Default : No
Forced : No

Text #6
ID : 8
Format : UTF-8
Codec ID : S_TEXT/UTF8
Codec ID/Info : UTF-8 Plain Text
Duration : 51 min 15 s
Bit rate : 46 b/s
Count of elements : 615
Stream size : 17.4 KiB (0)
Title : Chinese (Simplified)
Language : Chinese
Default : No
Forced : No

Text #7
ID : 9
Format : UTF-8
Codec ID : S_TEXT/UTF8
Codec ID/Info : UTF-8 Plain Text
Duration : 51 min 23 s
Bit rate : 49 b/s
Count of elements : 616
Stream size : 18.7 KiB (0)
Title : Chinese (Traditional)
Language : Chinese
Default : No
Forced : No

Text #8
ID : 10
Format : UTF-8
Codec ID : S_TEXT/UTF8
Codec ID/Info : UTF-8 Plain Text
Duration : 51 min 23 s
Bit rate : 48 b/s
Count of elements : 605
Stream size : 18.2 KiB (0)
Language : Czech
Default : No
Forced : No

Text #9
ID : 11
Format : UTF-8
Codec ID : S_TEXT/UTF8
Codec ID/Info : UTF-8 Plain Text
Duration : 51 min 15 s
Bit rate : 49 b/s
Count of elements : 608
Stream size : 18.4 KiB (0)
Language : Danish
Default : No
Forced : No

Text #10
ID : 12
Format : UTF-8
Codec ID : S_TEXT/UTF8
Codec ID/Info : UTF-8 Plain Text
Duration : 51 min 15 s
Bit rate : 43 b/s
Count of elements : 583
Stream size : 16.4 KiB (0)
Language : Dutch
Default : No
Forced : No

Text #11
ID : 13
Format : UTF-8
Codec ID : S_TEXT/UTF8
Codec ID/Info : UTF-8 Plain Text
Duration : 51 min 15 s
Bit rate : 47 b/s
Count of elements : 613
Stream size : 17.8 KiB (0)
Language : Estonian
Default : No
Forced : No

Text #12
ID : 14
Format : UTF-8
Codec ID : S_TEXT/UTF8
Codec ID/Info : UTF-8 Plain Text
Duration : 51 min 23 s
Bit rate : 49 b/s
Count of elements : 608
Stream size : 18.7 KiB (0)
Language : Finnish
Default : No
Forced : No

Text #13
ID : 15
Format : UTF-8
Codec ID : S_TEXT/UTF8
Codec ID/Info : UTF-8 Plain Text
Duration : 51 min 19 s
Bit rate : 47 b/s
Count of elements : 628
Stream size : 17.9 KiB (0)
Title : French (Canada)
Language : French
Default : No
Forced : No

Text #14
ID : 16
Format : UTF-8
Codec ID : S_TEXT/UTF8
Codec ID/Info : UTF-8 Plain Text
Duration : 51 min 17 s
Bit rate : 47 b/s
Count of elements : 627
Stream size : 17.9 KiB (0)
Title : French (France)
Language : French
Default : No
Forced : No

Text #15
ID : 17
Format : UTF-8
Codec ID : S_TEXT/UTF8
Codec ID/Info : UTF-8 Plain Text
Duration : 51 min 21 s
Bit rate : 61 b/s
Count of elements : 604
Stream size : 23.2 KiB (0)
Language : German
Default : No
Forced : No

Text #16
ID : 18
Format : UTF-8
Codec ID : S_TEXT/UTF8
Codec ID/Info : UTF-8 Plain Text
Duration : 51 min 15 s
Bit rate : 85 b/s
Count of elements : 609
Stream size : 32.2 KiB (0)
Language : Greek
Default : No
Forced : No

Text #17
ID : 19
Format : UTF-8
Codec ID : S_TEXT/UTF8
Codec ID/Info : UTF-8 Plain Text
Duration : 51 min 23 s
Bit rate : 68 b/s
Count of elements : 616
Stream size : 25.9 KiB (0)
Language : Hebrew
Default : No
Forced : No

Text #18
ID : 20
Format : UTF-8
Codec ID : S_TEXT/UTF8
Codec ID/Info : UTF-8 Plain Text
Duration : 51 min 23 s
Bit rate : 130 b/s
Count of elements : 616
Stream size : 49.0 KiB (0)
Language : Hindi
Default : No
Forced : No

Text #19
ID : 21
Format : UTF-8
Codec ID : S_TEXT/UTF8
Codec ID/Info : UTF-8 Plain Text
Duration : 51 min 23 s
Bit rate : 51 b/s
Count of elements : 610
Stream size : 19.4 KiB (0)
Language : Hungarian
Default : No
Forced : No

Text #20
ID : 22
Format : UTF-8
Codec ID : S_TEXT/UTF8
Codec ID/Info : UTF-8 Plain Text
Duration : 51 min 15 s
Bit rate : 50 b/s
Count of elements : 608
Stream size : 18.8 KiB (0)
Language : Indonesian
Default : No
Forced : No

Text #21
ID : 23
Format : UTF-8
Codec ID : S_TEXT/UTF8
Codec ID/Info : UTF-8 Plain Text
Duration : 51 min 22 s
Bit rate : 52 b/s
Count of elements : 616
Stream size : 19.9 KiB (0)
Language : Italian
Default : No
Forced : No

Text #22
ID : 24
Format : UTF-8
Codec ID : S_TEXT/UTF8
Codec ID/Info : UTF-8 Plain Text
Duration : 51 min 22 s
Bit rate : 42 b/s
Count of elements : 611
Stream size : 15.9 KiB (0)
Language : Japanese
Default : No
Forced : No

Text #23
ID : 25
Format : UTF-8
Codec ID : S_TEXT/UTF8
Codec ID/Info : UTF-8 Plain Text
Duration : 51 min 15 s
Bit rate : 52 b/s
Count of elements : 614
Stream size : 19.7 KiB (0)
Language : Latvian
Default : No
Forced : No

Text #24
ID : 26
Format : UTF-8
Codec ID : S_TEXT/UTF8
Codec ID/Info : UTF-8 Plain Text
Duration : 51 min 15 s
Bit rate : 49 b/s
Count of elements : 607
Stream size : 18.6 KiB (0)
Language : Lithuanian
Default : No
Forced : No

Text #25
ID : 27
Format : UTF-8
Codec ID : S_TEXT/UTF8
Codec ID/Info : UTF-8 Plain Text
Duration : 51 min 15 s
Bit rate : 53 b/s
Count of elements : 611
Stream size : 20.0 KiB (0)
Language : Malay
Default : No
Forced : No

Text #26
ID : 28
Format : UTF-8
Codec ID : S_TEXT/UTF8
Codec ID/Info : UTF-8 Plain Text
Duration : 51 min 15 s
Bit rate : 49 b/s
Count of elements : 608
Stream size : 18.6 KiB (0)
Language : Norwegian
Default : No
Forced : No

Text #27
ID : 29
Format : UTF-8
Codec ID : S_TEXT/UTF8
Codec ID/Info : UTF-8 Plain Text
Duration : 51 min 23 s
Bit rate : 46 b/s
Count of elements : 611
Stream size : 17.6 KiB (0)
Language : Polish
Default : No
Forced : No

Text #28
ID : 30
Format : UTF-8
Codec ID : S_TEXT/UTF8
Codec ID/Info : UTF-8 Plain Text
Duration : 51 min 15 s
Bit rate : 55 b/s
Count of elements : 610
Stream size : 20.7 KiB (0)
Language : Portuguese
Default : No
Forced : No

Text #29
ID : 31
Format : UTF-8
Codec ID : S_TEXT/UTF8
Codec ID/Info : UTF-8 Plain Text
Duration : 51 min 23 s
Bit rate : 45 b/s
Count of elements : 611
Stream size : 17.1 KiB (0)
Title : Portuguese (Brazil)
Language : Portuguese
Default : No
Forced : No

Text #30
ID : 32
Format : UTF-8
Codec ID : S_TEXT/UTF8
Codec ID/Info : UTF-8 Plain Text
Duration : 51 min 23 s
Bit rate : 80 b/s
Count of elements : 616
Stream size : 30.3 KiB (0)
Language : Russian
Default : No
Forced : No

Text #31
ID : 33
Format : UTF-8
Codec ID : S_TEXT/UTF8
Codec ID/Info : UTF-8 Plain Text
Duration : 51 min 23 s
Bit rate : 43 b/s
Count of elements : 602
Stream size : 16.4 KiB (0)
Language : Slovak
Default : No
Forced : No

Text #32
ID : 34
Format : UTF-8
Codec ID : S_TEXT/UTF8
Codec ID/Info : UTF-8 Plain Text
Duration : 51 min 15 s
Bit rate : 42 b/s
Count of elements : 612
Stream size : 16.0 KiB (0)
Language : Slovenian
Default : No
Forced : No

Text #33
ID : 35
Format : UTF-8
Codec ID : S_TEXT/UTF8
Codec ID/Info : UTF-8 Plain Text
Duration : 51 min 15 s
Bit rate : 53 b/s
Count of elements : 616
Stream size : 19.9 KiB (0)
Title : Spanish (Latin America)
Language : Spanish
Default : No
Forced : No

Text #34
ID : 36
Format : UTF-8
Codec ID : S_TEXT/UTF8
Codec ID/Info : UTF-8 Plain Text
Duration : 51 min 32 s
Bit rate : 49 b/s
Count of elements : 657
Stream size : 18.7 KiB (0)
Title : Spanish (Spain)
Language : Spanish
Default : No
Forced : No

Text #35
ID : 37
Format : UTF-8
Codec ID : S_TEXT/UTF8
Codec ID/Info : UTF-8 Plain Text
Duration : 51 min 15 s
Bit rate : 51 b/s
Count of elements : 609
Stream size : 19.3 KiB (0)
Language : Swedish
Default : No
Forced : No

Text #36
ID : 38
Format : UTF-8
Codec ID : S_TEXT/UTF8
Codec ID/Info : UTF-8 Plain Text
Duration : 51 min 15 s
Bit rate : 157 b/s
Count of elements : 615
Stream size : 59.1 KiB (0)
Language : Tamil
Default : No
Forced : No

Text #37
ID : 39
Format : UTF-8
Codec ID : S_TEXT/UTF8
Codec ID/Info : UTF-8 Plain Text
Duration : 51 min 15 s
Bit rate : 159 b/s
Count of elements : 615
Stream size : 60.0 KiB (0)
Language : Telugu
Default : No
Forced : No

Text #38
ID : 40
Format : UTF-8
Codec ID : S_TEXT/UTF8
Codec ID/Info : UTF-8 Plain Text
Duration : 51 min 15 s
Bit rate : 134 b/s
Count of elements : 615
Stream size : 50.4 KiB (0)
Language : Thai
Default : No
Forced : No

Text #39
ID : 41
Format : UTF-8
Codec ID : S_TEXT/UTF8
Codec ID/Info : UTF-8 Plain Text
Duration : 51 min 23 s
Bit rate : 77 b/s
Count of elements : 585
Stream size : 29.1 KiB (0)
Language : Ukrainian
Default : No
Forced : No

Text #40
ID : 42
Format : UTF-8
Codec ID : S_TEXT/UTF8
Codec ID/Info : UTF-8 Plain Text
Duration : 51 min 23 s
Bit rate : 67 b/s
Count of elements : 612
Stream size : 25.2 KiB (0)
Language : Vietnamese
Default : No
Forced : No
Ocena użytkowników Help
Działa(0) | Fake(0) | Nie działa(0) | Wymagane hasło(0) | Wirus(0)
Statystyki seed/leech Ostatnio aktualizowane: 2020-12-22 21:34:34 [Aktualizuj]
Napisano: 16.04.2021 15:58
 
Nikt jeszcze nie skomentował tego torrenta... Może Ty to zrobisz?
Oświadczenie: Pliki prezentowane w katalogu nie znajdują się na serwerach wortalu. Użytkownicy zezwolili na ich udostępnienie. Administrator serwisu BitNova.info oraz właściciel serwera nie może ponieść konsekwencji za to co użytkownicy udostępniają i publikują. Pamiętaj! Nie możesz używać tego serwisu do rozpowszechniania lub ściągania materiałów do których nie masz odpowiednich praw lub licencji. Użytkownicy są odpowiedzialni za przestrzeganie tych zasad.

(Disclaimer: None files presented in the directory aren't hosted on servers vortal. Users allow their release. The administrator of site BitNova.info and owner of the server can not be held responsible for what its users post, or any other actions of its users. You may not use this site to distribute or download any material when you do not have the legal rights to do so. It is your own responsibility to adhere to these terms.)
» Zgłaszanie nadużyć / Abuse