Jedyny taki katalog polskich torrentów w sieci. Najlepsze torrenty w jednym miejscu.

Korzystanie ze strony jest darmowe. W przeciwieństwie do konkurencji nie kasujemy kont użytkowników bez ich wyraźnej prośby.


Torrent: Servant [S01] [720p] [ATVP] [WEB] [x264] [DDP5.1 Atmos] [CasStudio] [NapisyPL]

Servant [S01] [720p] [ATVP] [WEB] [x264] [DDP5.1 Atmos] [CasStudio] [NapisyPL] torrent
Dodał: Ishimura
19.03.2020 03:57
Kategoria: Seriale obyczajowe

Rozmiar: 8.22 GB
Seed'ów: 26
Leecher'ów: 10
Pobrań: 5237

Kondycja:
 


» Komentarze [0]
» Obserwuj
» Zgłoś plik
Info

Produkcja: USA
Gatunek: Dramat, Horror, Thriller
Scenariusz: Tony Basgallop
Platforma: Apple TV+
Premiera: 28.11.2019 - Świat

Opis

Servant to historia młodego małżeństwa, które decyduje się na eksperymentalną terapię, po tym, jak tracą dziecko. Jego zamiennikiem ma zostać lalka przypominająca niemowlę. Sprawy zaczynają się komplikować, kiedy matka widzi w lalce prawdziwe dziecko i decyduje się na zatrudnienie niani, która skrywa mroczne tajemnice.

Obsada

https://www.youtube.com/watch?v=rMjAFDF0sXY

Dane Techniczne

Video
ID : 1
Format : AVC
Format/Info : Advanced Video Codec
Format profile : HighL3.2
Format settings : CABAC / 5 Ref Frames
Format settings, CABAC : Yes
Format settings, Reference frames : 5 frames
Codec ID : V_MPEG4/ISO/AVC
Duration : 36 min 56 s
Bit rate : 2 877 kb/s
Width : 1 356 pixels
Height : 678 pixels
Display aspect ratio : 2.000
Frame rate mode : Constant
Frame rate : 23.976 (24000/1001) FPS
Color space : YUV
Chroma subsampling : 4:2:0
Bit depth : 8 bits
Scan type : Progressive
Bits/(PixelFrame) : 0.131
Stream size : 760 MiB (79)
Language : English
Default : Yes
Forced : No
Color range : Limited
Color primaries : BT.709
Transfer characteristics : BT.709
Matrix coefficients : BT.709

Audio
ID : 2
Format : E-AC-3 JOC
Format/Info : Enhanced AC-3 with Joint Object Coding
Commercial name : Dolby Digital Plus with Dolby Atmos
Codec ID : A_EAC3
Duration : 36 min 56 s
Bit rate mode : Constant
Bit rate : 768 kb/s
Channel(s) : 6 channels
Channel layout : L R C LFE Ls Rs
Sampling rate : 48.0 kHz
Frame rate : 31.250 FPS (1536 SPF)
Compression mode : Lossy
Stream size : 203 MiB (21)
Language : English
Service kind : Complete Main
Default : Yes
Forced : No
Complexity index : 16
Number of dynamic objects : 15
Bed channel count : 1 channel
Bed channel configuration : LFE

Text #1
ID : 3
Format : UTF-8
Codec ID : S_TEXT/UTF8
Codec ID/Info : UTF-8 Plain Text
Duration : 35 min 47 s
Bit rate : 37 b/s
Count of elements : 285
Stream size : 9.85 KiB (0)
Language : English
Default : No
Forced : No

Text #2
ID : 4
Format : UTF-8
Codec ID : S_TEXT/UTF8
Codec ID/Info : UTF-8 Plain Text
Duration : 36 min 17 s
Bit rate : 49 b/s
Count of elements : 428
Stream size : 13.1 KiB (0)
Title : English (SDH)
Language : English
Default : No
Forced : No

Text #3
ID : 5
Format : UTF-8
Codec ID : S_TEXT/UTF8
Codec ID/Info : UTF-8 Plain Text
Duration : 36 min 48 s
Bit rate : 31 b/s
Count of elements : 294
Stream size : 8.41 KiB (0)
Language : Chinese
Default : No
Forced : No

Text #4
ID : 6
Format : UTF-8
Codec ID : S_TEXT/UTF8
Codec ID/Info : UTF-8 Plain Text
Duration : 36 min 48 s
Bit rate : 33 b/s
Count of elements : 295
Stream size : 8.91 KiB (0)
Language : Chinese
Default : No
Forced : No

Text #5
ID : 7
Format : UTF-8
Codec ID : S_TEXT/UTF8
Codec ID/Info : UTF-8 Plain Text
Duration : 36 min 54 s
Bit rate : 36 b/s
Count of elements : 327
Stream size : 9.75 KiB (0)
Language : Spanish
Default : No
Forced : No

Text #6
ID : 8
Format : UTF-8
Codec ID : S_TEXT/UTF8
Codec ID/Info : UTF-8 Plain Text
Duration : 36 min 48 s
Bit rate : 33 b/s
Count of elements : 295
Stream size : 8.91 KiB (0)
Language : Chinese
Default : No
Forced : No

Text #7
ID : 9
Format : UTF-8
Codec ID : S_TEXT/UTF8
Codec ID/Info : UTF-8 Plain Text
Duration : 36 min 49 s
Bit rate : 48 b/s
Count of elements : 294
Stream size : 13.2 KiB (0)
Language : Arabic
Default : No
Forced : No

Text #8
ID : 10
Format : UTF-8
Codec ID : S_TEXT/UTF8
Codec ID/Info : UTF-8 Plain Text
Duration : 36 min 49 s
Bit rate : 51 b/s
Count of elements : 292
Stream size : 13.9 KiB (0)
Language : Bulgarian
Default : No
Forced : No

Text #9
ID : 11
Format : UTF-8
Codec ID : S_TEXT/UTF8
Codec ID/Info : UTF-8 Plain Text
Duration : 36 min 49 s
Bit rate : 34 b/s
Count of elements : 292
Stream size : 9.26 KiB (0)
Language : Czech
Default : No
Forced : No

Text #10
ID : 12
Format : UTF-8
Codec ID : S_TEXT/UTF8
Codec ID/Info : UTF-8 Plain Text
Duration : 36 min 49 s
Bit rate : 35 b/s
Count of elements : 292
Stream size : 9.62 KiB (0)
Language : Danish
Default : No
Forced : No

Text #11
ID : 13
Format : UTF-8
Codec ID : S_TEXT/UTF8
Codec ID/Info : UTF-8 Plain Text
Duration : 36 min 49 s
Bit rate : 30 b/s
Count of elements : 271
Stream size : 8.24 KiB (0)
Language : Dutch
Default : No
Forced : No

Text #12
ID : 14
Format : UTF-8
Codec ID : S_TEXT/UTF8
Codec ID/Info : UTF-8 Plain Text
Duration : 36 min 49 s
Bit rate : 32 b/s
Count of elements : 293
Stream size : 8.73 KiB (0)
Language : Estonian
Default : No
Forced : No

Text #13
ID : 15
Format : UTF-8
Codec ID : S_TEXT/UTF8
Codec ID/Info : UTF-8 Plain Text
Duration : 36 min 49 s
Bit rate : 33 b/s
Count of elements : 292
Stream size : 9.17 KiB (0)
Language : Finnish
Default : No
Forced : No

Text #14
ID : 16
Format : UTF-8
Codec ID : S_TEXT/UTF8
Codec ID/Info : UTF-8 Plain Text
Duration : 36 min 31 s
Bit rate : 32 b/s
Count of elements : 263
Stream size : 8.66 KiB (0)
Title : French (Canada)
Language : French
Default : No
Forced : No

Text #15
ID : 17
Format : UTF-8
Codec ID : S_TEXT/UTF8
Codec ID/Info : UTF-8 Plain Text
Duration : 36 min 31 s
Bit rate : 32 b/s
Count of elements : 262
Stream size : 8.63 KiB (0)
Title : French (France)
Language : French
Default : No
Forced : No

Text #16
ID : 18
Format : UTF-8
Codec ID : S_TEXT/UTF8
Codec ID/Info : UTF-8 Plain Text
Duration : 36 min 48 s
Bit rate : 37 b/s
Count of elements : 257
Stream size : 10.2 KiB (0)
Language : German
Default : No
Forced : No

Text #17
ID : 19
Format : UTF-8
Codec ID : S_TEXT/UTF8
Codec ID/Info : UTF-8 Plain Text
Duration : 36 min 49 s
Bit rate : 61 b/s
Count of elements : 292
Stream size : 16.6 KiB (0)
Language : Greek
Default : No
Forced : No

Text #18
ID : 20
Format : UTF-8
Codec ID : S_TEXT/UTF8
Codec ID/Info : UTF-8 Plain Text
Duration : 36 min 49 s
Bit rate : 47 b/s
Count of elements : 294
Stream size : 12.8 KiB (0)
Language : Hebrew
Default : No
Forced : No

Text #19
ID : 21
Format : UTF-8
Codec ID : S_TEXT/UTF8
Codec ID/Info : UTF-8 Plain Text
Duration : 36 min 49 s
Bit rate : 90 b/s
Count of elements : 294
Stream size : 24.4 KiB (0)
Language : Hindi
Default : No
Forced : No

Text #20
ID : 22
Format : UTF-8
Codec ID : S_TEXT/UTF8
Codec ID/Info : UTF-8 Plain Text
Duration : 36 min 49 s
Bit rate : 34 b/s
Count of elements : 293
Stream size : 9.18 KiB (0)
Language : Hungarian
Default : No
Forced : No

Text #21
ID : 23
Format : UTF-8
Codec ID : S_TEXT/UTF8
Codec ID/Info : UTF-8 Plain Text
Duration : 36 min 49 s
Bit rate : 34 b/s
Count of elements : 293
Stream size : 9.22 KiB (0)
Language : Indonesian
Default : No
Forced : No

Text #22
ID : 24
Format : UTF-8
Codec ID : S_TEXT/UTF8
Codec ID/Info : UTF-8 Plain Text
Duration : 36 min 50 s
Bit rate : 36 b/s
Count of elements : 288
Stream size : 9.76 KiB (0)
Language : Italian
Default : No
Forced : No

Text #23
ID : 25
Format : UTF-8
Codec ID : S_TEXT/UTF8
Codec ID/Info : UTF-8 Plain Text
Duration : 36 min 54 s
Bit rate : 26 b/s
Count of elements : 304
Stream size : 7.15 KiB (0)
Language : Japanese
Default : No
Forced : No

Text #24
ID : 26
Format : UTF-8
Codec ID : S_TEXT/UTF8
Codec ID/Info : UTF-8 Plain Text
Duration : 36 min 49 s
Bit rate : 37 b/s
Count of elements : 294
Stream size : 10.1 KiB (0)
Language : Latvian
Default : No
Forced : No

Text #25
ID : 27
Format : UTF-8
Codec ID : S_TEXT/UTF8
Codec ID/Info : UTF-8 Plain Text
Duration : 36 min 49 s
Bit rate : 35 b/s
Count of elements : 292
Stream size : 9.55 KiB (0)
Language : Lithuanian
Default : No
Forced : No

Text #26
ID : 28
Format : UTF-8
Codec ID : S_TEXT/UTF8
Codec ID/Info : UTF-8 Plain Text
Duration : 36 min 49 s
Bit rate : 38 b/s
Count of elements : 293
Stream size : 10.3 KiB (0)
Language : Malay
Default : No
Forced : No

Text #27
ID : 29
Format : UTF-8
Codec ID : S_TEXT/UTF8
Codec ID/Info : UTF-8 Plain Text
Duration : 36 min 49 s
Bit rate : 34 b/s
Count of elements : 293
Stream size : 9.18 KiB (0)
Language : Norwegian
Default : No
Forced : No

Text #28
ID : 30
Format : UTF-8
Codec ID : S_TEXT/UTF8
Codec ID/Info : UTF-8 Plain Text
Duration : 36 min 49 s
Bit rate : 34 b/s
Count of elements : 293
Stream size : 9.38 KiB (0)
Language : Polish
Default : No
Forced : No

Text #29
ID : 31
Format : UTF-8
Codec ID : S_TEXT/UTF8
Codec ID/Info : UTF-8 Plain Text
Duration : 36 min 49 s
Bit rate : 34 b/s
Count of elements : 292
Stream size : 9.24 KiB (0)
Language : Portuguese
Default : No
Forced : No

Text #30
ID : 32
Format : UTF-8
Codec ID : S_TEXT/UTF8
Codec ID/Info : UTF-8 Plain Text
Duration : 36 min 49 s
Bit rate : 32 b/s
Count of elements : 292
Stream size : 8.87 KiB (0)
Title : Portuguese (Brazil)
Language : Portuguese
Default : No
Forced : No

Text #31
ID : 33
Format : UTF-8
Codec ID : S_TEXT/UTF8
Codec ID/Info : UTF-8 Plain Text
Duration : 36 min 49 s
Bit rate : 56 b/s
Count of elements : 295
Stream size : 15.2 KiB (0)
Language : Russian
Default : No
Forced : No

Text #32
ID : 34
Format : UTF-8
Codec ID : S_TEXT/UTF8
Codec ID/Info : UTF-8 Plain Text
Duration : 36 min 49 s
Bit rate : 33 b/s
Count of elements : 292
Stream size : 9.05 KiB (0)
Language : Slovak
Default : No
Forced : No

Text #33
ID : 35
Format : UTF-8
Codec ID : S_TEXT/UTF8
Codec ID/Info : UTF-8 Plain Text
Duration : 36 min 49 s
Bit rate : 31 b/s
Count of elements : 293
Stream size : 8.41 KiB (0)
Language : Slovenian
Default : No
Forced : No

Text #34
ID : 36
Format : UTF-8
Codec ID : S_TEXT/UTF8
Codec ID/Info : UTF-8 Plain Text
Duration : 36 min 49 s
Bit rate : 36 b/s
Count of elements : 296
Stream size : 9.72 KiB (0)
Title : Spanish (Latin America)
Language : Spanish
Default : No
Forced : No

Text #35
ID : 37
Format : UTF-8
Codec ID : S_TEXT/UTF8
Codec ID/Info : UTF-8 Plain Text
Duration : 36 min 49 s
Bit rate : 34 b/s
Count of elements : 292
Stream size : 9.27 KiB (0)
Language : Swedish
Default : No
Forced : No

Text #36
ID : 38
Format : UTF-8
Codec ID : S_TEXT/UTF8
Codec ID/Info : UTF-8 Plain Text
Duration : 36 min 49 s
Bit rate : 114 b/s
Count of elements : 294
Stream size : 31.0 KiB (0)
Language : Tamil
Default : No
Forced : No

Text #37
ID : 39
Format : UTF-8
Codec ID : S_TEXT/UTF8
Codec ID/Info : UTF-8 Plain Text
Duration : 36 min 49 s
Bit rate : 102 b/s
Count of elements : 294
Stream size : 27.5 KiB (0)
Language : Telugu
Default : No
Forced : No

Text #38
ID : 40
Format : UTF-8
Codec ID : S_TEXT/UTF8
Codec ID/Info : UTF-8 Plain Text
Duration : 36 min 49 s
Bit rate : 86 b/s
Count of elements : 294
Stream size : 23.3 KiB (0)
Language : Thai
Default : No
Forced : No

Text #39
ID : 41
Format : UTF-8
Codec ID : S_TEXT/UTF8
Codec ID/Info : UTF-8 Plain Text
Duration : 36 min 49 s
Bit rate : 55 b/s
Count of elements : 295
Stream size : 14.8 KiB (0)
Language : Ukrainian
Default : No
Forced : No

Text #40
ID : 42
Format : UTF-8
Codec ID : S_TEXT/UTF8
Codec ID/Info : UTF-8 Plain Text
Duration : 36 min 49 s
Bit rate : 45 b/s
Count of elements : 294
Stream size : 12.2 KiB (0)
Language : Vietnamese
Default : No
Forced : No

Menu
00:00:00.000 : en:Chapter 01
00:00:32.032 : en:Chapter 02
Ocena użytkowników Help
Działa(0) | Fake(0) | Nie działa(0) | Wymagane hasło(0) | Wirus(0)
Statystyki seed/leech Ostatnio aktualizowane: 2021-03-22 13:15:36 [Aktualizuj]
Napisano: 13.04.2021 22:41
 
Nikt jeszcze nie skomentował tego torrenta... Może Ty to zrobisz?
Oświadczenie: Pliki prezentowane w katalogu nie znajdują się na serwerach wortalu. Użytkownicy zezwolili na ich udostępnienie. Administrator serwisu BitNova.info oraz właściciel serwera nie może ponieść konsekwencji za to co użytkownicy udostępniają i publikują. Pamiętaj! Nie możesz używać tego serwisu do rozpowszechniania lub ściągania materiałów do których nie masz odpowiednich praw lub licencji. Użytkownicy są odpowiedzialni za przestrzeganie tych zasad.

(Disclaimer: None files presented in the directory aren't hosted on servers vortal. Users allow their release. The administrator of site BitNova.info and owner of the server can not be held responsible for what its users post, or any other actions of its users. You may not use this site to distribute or download any material when you do not have the legal rights to do so. It is your own responsibility to adhere to these terms.)
» Zgłaszanie nadużyć / Abuse