Jedyny taki katalog polskich torrentów w sieci. Najlepsze torrenty w jednym miejscu.

Korzystanie ze strony jest darmowe. W przeciwieństwie do konkurencji nie kasujemy kont użytkowników bez ich wyraźnej prośby.


Torrent: Servant [S01] [2160p] [ATVP] [WEB] [x265] [10bit] [HDR] [DDP5.1 Atmos] [NiXON] [NapisyPL]

Servant [S01] [2160p] [ATVP] [WEB] [x265] [10bit] [HDR] [DDP5.1 Atmos] [NiXON] [NapisyPL] torrent
Dodał: Ishimura
19.03.2020 03:49
Kategoria: Seriale obyczajowe

Rozmiar: 0.00 KB
Seed'ów: (?)
Leecher'ów: (?)
Pobrań: (?)

Kondycja:
 


» Komentarze [0]
» Obserwuj
» Zgłoś plik
Info

Produkcja: USA
Gatunek: Dramat, Horror, Thriller
Scenariusz: Tony Basgallop
Platforma: Apple TV+
Premiera: 28.11.2019 - Świat

Opis

Servant to historia młodego małżeństwa, które decyduje się na eksperymentalną terapię, po tym, jak tracą dziecko. Jego zamiennikiem ma zostać lalka przypominająca niemowlę. Sprawy zaczynają się komplikować, kiedy matka widzi w lalce prawdziwe dziecko i decyduje się na zatrudnienie niani, która skrywa mroczne tajemnice.

Obsada

https://www.youtube.com/watch?v=rMjAFDF0sXY

Dane Techniczne

Video
ID : 1
Format : HEVC
Format/Info : High Efficiency Video Coding
Format profile : Main 10L5High
HDR format : SMPTE ST 2086, HDR10 compatible
Codec ID : V_MPEGH/ISO/HEVC
Duration : 36 min 24 s
Bit rate : 24.7 Mb/s
Width : 3 840 pixels
Height : 1 920 pixels
Display aspect ratio : 2.000
Frame rate mode : Constant
Frame rate : 23.976 (24000/1001) FPS
Color space : YUV
Chroma subsampling : 4:2:0 (Type 2)
Bit depth : 10 bits
Bits/(PixelFrame) : 0.140
Stream size : 6.28 GiB (97)
Language : English
Default : Yes
Forced : No
Color range : Limited
Color primaries : BT.2020
Transfer characteristics : PQ
Matrix coefficients : BT.2020 non-constant
Mastering display color primaries : Display P3
Mastering display luminance : min: 0.0050 cd/m2, max: 1000 cd/m2
Maximum Content Light Level : 170 cd/m2
Maximum Frame-Average Light Level : 71 cd/m2

Audio
ID : 2
Format : E-AC-3 JOC
Format/Info : Enhanced AC-3 with Joint Object Coding
Commercial name : Dolby Digital Plus with Dolby Atmos
Codec ID : A_EAC3
Duration : 36 min 24 s
Bit rate mode : Constant
Bit rate : 768 kb/s
Channel(s) : 6 channels
Channel layout : L R C LFE Ls Rs
Sampling rate : 48.0 kHz
Frame rate : 31.250 FPS (1536 SPF)
Compression mode : Lossy
Stream size : 200 MiB (3)
Language : English
Service kind : Complete Main
Default : Yes
Forced : No
Complexity index : 16
Number of dynamic objects : 15
Bed channel count : 1 channel
Bed channel configuration : LFE

Text #1
ID : 3
Format : UTF-8
Codec ID : S_TEXT/UTF8
Codec ID/Info : UTF-8 Plain Text
Duration : 35 min 35 s
Bit rate : 47 b/s
Count of elements : 281
Stream size : 12.4 KiB (0)
Title : ???????
Language : Arabic
Default : No
Forced : No

Text #2
ID : 4
Format : UTF-8
Codec ID : S_TEXT/UTF8
Codec ID/Info : UTF-8 Plain Text
Duration : 35 min 29 s
Bit rate : 48 b/s
Count of elements : 279
Stream size : 12.6 KiB (0)
Title : ?????????
Language : Bulgarian
Default : No
Forced : No

Text #3
ID : 5
Format : UTF-8
Codec ID : S_TEXT/UTF8
Codec ID/Info : UTF-8 Plain Text
Duration : 35 min 35 s
Bit rate : 31 b/s
Count of elements : 279
Stream size : 8.20 KiB (0)
Title : etina
Language : Czech
Default : No
Forced : No

Text #4
ID : 6
Format : UTF-8
Codec ID : S_TEXT/UTF8
Codec ID/Info : UTF-8 Plain Text
Duration : 35 min 35 s
Bit rate : 32 b/s
Count of elements : 279
Stream size : 8.50 KiB (0)
Title : dansk
Language : Danish
Default : No
Forced : No

Text #5
ID : 7
Format : UTF-8
Codec ID : S_TEXT/UTF8
Codec ID/Info : UTF-8 Plain Text
Duration : 35 min 33 s
Bit rate : 34 b/s
Count of elements : 244
Stream size : 9.11 KiB (0)
Title : Deutsch
Language : German
Default : No
Forced : No

Text #6
ID : 8
Format : UTF-8
Codec ID : S_TEXT/UTF8
Codec ID/Info : UTF-8 Plain Text
Duration : 35 min 35 s
Bit rate : 57 b/s
Count of elements : 279
Stream size : 15.1 KiB (0)
Title : ????????
Language : Greek
Default : No
Forced : No

Text #7
ID : 9
Format : UTF-8
Codec ID : S_TEXT/UTF8
Codec ID/Info : UTF-8 Plain Text
Duration : 34 min 33 s
Bit rate : 34 b/s
Count of elements : 272
Stream size : 8.73 KiB (0)
Title : English
Language : English
Default : No
Forced : No

Text #8
ID : 10
Format : UTF-8
Codec ID : S_TEXT/UTF8
Codec ID/Info : UTF-8 Plain Text
Duration : 35 min 3 s
Bit rate : 46 b/s
Count of elements : 415
Stream size : 11.9 KiB (0)
Title : English (SDH)
Language : English
Default : No
Forced : No

Text #9
ID : 11
Format : UTF-8
Codec ID : S_TEXT/UTF8
Codec ID/Info : UTF-8 Plain Text
Duration : 35 min 35 s
Bit rate : 32 b/s
Count of elements : 282
Stream size : 8.56 KiB (0)
Title : Espa?ol (Latinoamrica)
Language : Spanish
Default : No
Forced : No

Text #10
ID : 12
Format : UTF-8
Codec ID : S_TEXT/UTF8
Codec ID/Info : UTF-8 Plain Text
Duration : 35 min 33 s
Bit rate : 33 b/s
Count of elements : 313
Stream size : 8.61 KiB (0)
Title : Espa?ol (Espa?a)
Language : Spanish
Default : No
Forced : No

Text #11
ID : 13
Format : UTF-8
Codec ID : S_TEXT/UTF8
Codec ID/Info : UTF-8 Plain Text
Duration : 35 min 35 s
Bit rate : 29 b/s
Count of elements : 280
Stream size : 7.69 KiB (0)
Title : eesti
Language : Estonian
Default : No
Forced : No

Text #12
ID : 14
Format : UTF-8
Codec ID : S_TEXT/UTF8
Codec ID/Info : UTF-8 Plain Text
Duration : 35 min 35 s
Bit rate : 31 b/s
Count of elements : 279
Stream size : 8.11 KiB (0)
Title : Suomi
Language : Finnish
Default : No
Forced : No

Text #13
ID : 15
Format : UTF-8
Codec ID : S_TEXT/UTF8
Codec ID/Info : UTF-8 Plain Text
Duration : 35 min 9 s
Bit rate : 29 b/s
Count of elements : 247
Stream size : 7.68 KiB (0)
Title : Franais (France)
Language : French
Default : No
Forced : No

Text #14
ID : 16
Format : UTF-8
Codec ID : S_TEXT/UTF8
Codec ID/Info : UTF-8 Plain Text
Duration : 35 min 35 s
Bit rate : 46 b/s
Count of elements : 281
Stream size : 12.0 KiB (0)
Title : ?????
Language : Hebrew
Default : No
Forced : No

Text #15
ID : 17
Format : UTF-8
Codec ID : S_TEXT/UTF8
Codec ID/Info : UTF-8 Plain Text
Duration : 35 min 45 s
Bit rate : 87 b/s
Count of elements : 281
Stream size : 22.9 KiB (0)
Title : ??????
Language : Hindi
Default : No
Forced : No

Text #16
ID : 18
Format : UTF-8
Codec ID : S_TEXT/UTF8
Codec ID/Info : UTF-8 Plain Text
Duration : 35 min 35 s
Bit rate : 31 b/s
Count of elements : 280
Stream size : 8.11 KiB (0)
Title : magyar
Language : Hungarian
Default : No
Forced : No

Text #17
ID : 19
Format : UTF-8
Codec ID : S_TEXT/UTF8
Codec ID/Info : UTF-8 Plain Text
Duration : 35 min 45 s
Bit rate : 30 b/s
Count of elements : 280
Stream size : 8.08 KiB (0)
Title : Bahasa Indonesia
Language : Indonesian
Default : No
Forced : No

Text #18
ID : 20
Format : UTF-8
Codec ID : S_TEXT/UTF8
Codec ID/Info : UTF-8 Plain Text
Duration : 35 min 36 s
Bit rate : 33 b/s
Count of elements : 275
Stream size : 8.63 KiB (0)
Title : Italiano
Language : Italian
Default : No
Forced : No

Text #19
ID : 21
Format : UTF-8
Codec ID : S_TEXT/UTF8
Codec ID/Info : UTF-8 Plain Text
Duration : 35 min 50 s
Bit rate : 25 b/s
Count of elements : 290
Stream size : 6.75 KiB (0)
Title : ???
Language : Japanese
Default : No
Forced : No

Text #20
ID : 22
Format : UTF-8
Codec ID : S_TEXT/UTF8
Codec ID/Info : UTF-8 Plain Text
Duration : 35 min 35 s
Bit rate : 32 b/s
Count of elements : 279
Stream size : 8.45 KiB (0)
Title : lietuvi?
Language : Lithuanian
Default : No
Forced : No

Text #21
ID : 23
Format : UTF-8
Codec ID : S_TEXT/UTF8
Codec ID/Info : UTF-8 Plain Text
Duration : 35 min 35 s
Bit rate : 34 b/s
Count of elements : 281
Stream size : 8.97 KiB (0)
Title : latvieu
Language : Latvian
Default : No
Forced : No

Text #22
ID : 24
Format : UTF-8
Codec ID : S_TEXT/UTF8
Codec ID/Info : UTF-8 Plain Text
Duration : 35 min 35 s
Bit rate : 34 b/s
Count of elements : 280
Stream size : 9.07 KiB (0)
Title : Bahasa Melayu
Language : Malay
Default : No
Forced : No

Text #23
ID : 25
Format : UTF-8
Codec ID : S_TEXT/UTF8
Codec ID/Info : UTF-8 Plain Text
Duration : 35 min 35 s
Bit rate : 29 b/s
Count of elements : 258
Stream size : 7.67 KiB (0)
Title : Nederlands
Language : Dutch
Default : No
Forced : No

Text #24
ID : 26
Format : UTF-8
Codec ID : S_TEXT/UTF8
Codec ID/Info : UTF-8 Plain Text
Duration : 35 min 35 s
Bit rate : 31 b/s
Count of elements : 280
Stream size : 8.11 KiB (0)
Title : norsk
Language : Norwegian
Default : No
Forced : No

Text #25
ID : 27
Format : UTF-8
Codec ID : S_TEXT/UTF8
Codec ID/Info : UTF-8 Plain Text
Duration : 35 min 35 s
Bit rate : 31 b/s
Count of elements : 280
Stream size : 8.29 KiB (0)
Title : polski
Language : Polish
Default : No
Forced : No

Text #26
ID : 28
Format : UTF-8
Codec ID : S_TEXT/UTF8
Codec ID/Info : UTF-8 Plain Text
Duration : 35 min 35 s
Bit rate : 31 b/s
Count of elements : 279
Stream size : 8.14 KiB (0)
Title : Portugu?s
Language : Portuguese
Default : No
Forced : No

Text #27
ID : 29
Format : UTF-8
Codec ID : S_TEXT/UTF8
Codec ID/Info : UTF-8 Plain Text
Duration : 35 min 35 s
Bit rate : 30 b/s
Count of elements : 279
Stream size : 7.83 KiB (0)
Title : Portugu?s (Brasil)
Language : Portuguese
Default : No
Forced : No

Text #28
ID : 30
Format : UTF-8
Codec ID : S_TEXT/UTF8
Codec ID/Info : UTF-8 Plain Text
Duration : 35 min 45 s
Bit rate : 52 b/s
Count of elements : 282
Stream size : 13.9 KiB (0)
Title : ???????
Language : Russian
Default : No
Forced : No

Text #29
ID : 31
Format : UTF-8
Codec ID : S_TEXT/UTF8
Codec ID/Info : UTF-8 Plain Text
Duration : 35 min 35 s
Bit rate : 30 b/s
Count of elements : 279
Stream size : 8.00 KiB (0)
Title : Slovenina
Language : Slovak
Default : No
Forced : No

Text #30
ID : 32
Format : UTF-8
Codec ID : S_TEXT/UTF8
Codec ID/Info : UTF-8 Plain Text
Duration : 35 min 35 s
Bit rate : 28 b/s
Count of elements : 280
Stream size : 7.38 KiB (0)
Title : slovenina
Language : Slovenian
Default : No
Forced : No

Text #31
ID : 33
Format : UTF-8
Codec ID : S_TEXT/UTF8
Codec ID/Info : UTF-8 Plain Text
Duration : 35 min 35 s
Bit rate : 31 b/s
Count of elements : 279
Stream size : 8.20 KiB (0)
Title : Svenska
Language : Swedish
Default : No
Forced : No

Text #32
ID : 34
Format : UTF-8
Codec ID : S_TEXT/UTF8
Codec ID/Info : UTF-8 Plain Text
Duration : 35 min 35 s
Bit rate : 111 b/s
Count of elements : 281
Stream size : 29.1 KiB (0)
Title : ?????
Language : Tamil
Default : No
Forced : No

Text #33
ID : 35
Format : UTF-8
Codec ID : S_TEXT/UTF8
Codec ID/Info : UTF-8 Plain Text
Duration : 35 min 35 s
Bit rate : 99 b/s
Count of elements : 281
Stream size : 25.9 KiB (0)
Title : ??????
Language : Telugu
Default : No
Forced : No

Text #34
ID : 36
Format : UTF-8
Codec ID : S_TEXT/UTF8
Codec ID/Info : UTF-8 Plain Text
Duration : 35 min 35 s
Bit rate : 83 b/s
Count of elements : 281
Stream size : 21.8 KiB (0)
Title : ???
Language : Thai
Default : No
Forced : No

Text #35
ID : 37
Format : UTF-8
Codec ID : S_TEXT/UTF8
Codec ID/Info : UTF-8 Plain Text
Duration : 35 min 45 s
Bit rate : 51 b/s
Count of elements : 282
Stream size : 13.5 KiB (0)
Title : ??????????
Language : Ukrainian
Default : No
Forced : No

Text #36
ID : 38
Format : UTF-8
Codec ID : S_TEXT/UTF8
Codec ID/Info : UTF-8 Plain Text
Duration : 35 min 45 s
Bit rate : 41 b/s
Count of elements : 281
Stream size : 10.9 KiB (0)
Title : Ti?ng Vi?t
Language : Vietnamese
Default : No
Forced : No

Text #37
ID : 39
Format : UTF-8
Codec ID : S_TEXT/UTF8
Codec ID/Info : UTF-8 Plain Text
Duration : 35 min 44 s
Bit rate : 29 b/s
Count of elements : 282
Stream size : 7.73 KiB (0)
Title : ??????
Language : Chinese
Default : No
Forced : No

Text #38
ID : 40
Format : UTF-8
Codec ID : S_TEXT/UTF8
Codec ID/Info : UTF-8 Plain Text
Duration : 35 min 44 s
Bit rate : 31 b/s
Count of elements : 282
Stream size : 8.34 KiB (0)
Title : ???
Language : Chinese
Default : No
Forced : No

Text #39
ID : 41
Format : UTF-8
Codec ID : S_TEXT/UTF8
Codec ID/Info : UTF-8 Plain Text
Duration : 35 min 34 s
Bit rate : 30 b/s
Count of elements : 281
Stream size : 7.86 KiB (0)
Title : ??????
Language : Chinese
Default : No
Forced : No
Ocena użytkowników Help
Działa(0) | Fake(0) | Nie działa(0) | Wymagane hasło(0) | Wirus(0)
Statystyki seed/leech Ostatnio aktualizowane: 2020-03-12 03:49:51 [Aktualizuj]
Napisano: 09.05.2021 06:02
 
Nikt jeszcze nie skomentował tego torrenta... Może Ty to zrobisz?
Oświadczenie: Pliki prezentowane w katalogu nie znajdują się na serwerach wortalu. Użytkownicy zezwolili na ich udostępnienie. Administrator serwisu BitNova.info oraz właściciel serwera nie może ponieść konsekwencji za to co użytkownicy udostępniają i publikują. Pamiętaj! Nie możesz używać tego serwisu do rozpowszechniania lub ściągania materiałów do których nie masz odpowiednich praw lub licencji. Użytkownicy są odpowiedzialni za przestrzeganie tych zasad.

(Disclaimer: None files presented in the directory aren't hosted on servers vortal. Users allow their release. The administrator of site BitNova.info and owner of the server can not be held responsible for what its users post, or any other actions of its users. You may not use this site to distribute or download any material when you do not have the legal rights to do so. It is your own responsibility to adhere to these terms.)
» Zgłaszanie nadużyć / Abuse