Jedyny taki katalog polskich torrentów w sieci. Najlepsze torrenty w jednym miejscu.

Korzystanie ze strony jest darmowe. W przeciwieństwie do konkurencji nie kasujemy kont użytkowników bez ich wyraźnej prośby.


Torrent: Martin Krampl - Things That Are Coming (2020) [96hz 24bit Hi-Res 5.1]

Martin Krampl - Things That Are Coming (2020) [96hz 24bit Hi-Res 5.1] torrent
Dodał: PROAC
01.03.2020 13:04
Kategoria: Klasyczna

Rozmiar: 2.72 GB
Seed'ów: 0
Leecher'ów: 0
Pobrań: 0

Kondycja:
 


» Komentarze [0]
» Obserwuj
» Zgłoś plik
Martin Krampl - Things That Are Coming (2020) [96hz 24bit Hi-Res 5.1]




Quality-Lossless
Release-2020
Duration-00:59:52
File Size-2.82 GB
Genre-Classical crossover
Cover Size-1400px




General





Complete name Martin Krampl - Things That Are Coming (2020) [Hi-Res 5.1]/05. I Hear Your Voice (Temptation) (feat. Miki Skuta).flac
Format : FLAC
Format/Info : Free Lossless Audio Codec
File size : 301 MiB
Duration : 6 min 14 s
Overall bit rate mode : Variable
Overall bit rate : 6 743 kb/s
Album : Things That Are Coming
Album/Performer : Martin Krampl
Track name : I Hear Your Voice (Temptation) (feat. Miki Skuta)
Track name/Position : 5
Track name/Total : 13
Performer : Martin Krampl feat. Miki Skuta
Genre : Classical crossover
Recorded date : 2020
Cover : Yes
Cover description : cover.jpg
Cover type : Cover (front)
Cover MIME : image/jpeg

Audio
Format : FLAC
Format/Info : Free Lossless Audio Codec
Duration : 6 min 14 s
Bit rate mode : Variable
Bit rate : 6 716 kb/s
Channel(s) : 6 channels
Channel positions : Front: L C R, Side: L R, LFE
Sampling rate : 96.0 kHz
Bit depth : 24 bits
Stream size : 300 MiB (100%)
Writing library : libFLAC 1.3.1 (UTC 2014-11-25)

General
Complete name Martin Krampl - Things That Are Coming (2020) [Hi-Res 5.1]/cover.jpg
Format : JPEG
File size : 1.22 MiB

Image
Format : JPEG
Width : 1 414 pixels
Height : 1 414 pixels
Color space : YUV
Chroma subsampling : 4:4:4
Bit depth : 8 bits
Compression mode : Lossy
Stream size : 1.22 MiB (100%)

General
Complete name Storage/Martin Krampl - Things That Are Coming (2020) [Hi-Res 5.1]/12. The End (feat. Bibiana Nwobilo).flac
Format : FLAC
Format/Info : Free Lossless Audio Codec
File size : 247 MiB
Duration : 5 min 25 s
Overall bit rate mode : Variable
Overall bit rate : 6 364 kb/s
Album : Things That Are Coming
Album/Performer : Martin Krampl
Track name : The End (feat. Bibiana Nwobilo)
Track name/Position : 12
Track name/Total : 13
Performer : Martin Krampl feat. Bibiana Nwobilo
Genre : Classical crossover
Recorded date : 2020
Cover : Yes
Cover description : cover.jpg
Cover type : Cover (front)
Cover MIME : image/jpeg

Audio
Format : FLAC
Format/Info : Free Lossless Audio Codec
Duration : 5 min 25 s
Bit rate mode : Variable
Bit rate : 6 332 kb/s
Channel(s) : 6 channels
Channel positions : Front: L C R, Side: L R, LFE
Sampling rate : 96.0 kHz
Bit depth : 24 bits
Stream size : 246 MiB (100%)
Writing library : libFLAC 1.3.1 (UTC 2014-11-25)

General
Complete name Martin Krampl - Things That Are Coming (2020) [Hi-Res 5.1]/02. Pure (Born Again).flac
Format : FLAC
Format/Info : Free Lossless Audio Codec
File size : 166 MiB
Duration : 3 min 40 s
Overall bit rate mode : Variable
Overall bit rate : 6 301 kb/s
Album : Things That Are Coming
Album/Performer : Martin Krampl
Track name : Pure (Born Again)
Track name/Position : 2
Track name/Total : 13
Performer : Martin Krampl
Genre : Classical crossover
Recorded date : 2020
Cover : Yes
Cover description : cover.jpg
Cover type : Cover (front)
Cover MIME : image/jpeg

Audio
Format : FLAC
Format/Info : Free Lossless Audio Codec
Duration : 3 min 40 s
Bit rate mode : Variable
Bit rate : 6 255 kb/s
Channel(s) : 6 channels
Channel positions : Front: L C R, Side: L R, LFE
Sampling rate : 96.0 kHz
Bit depth : 24 bits
Stream size : 164 MiB (99%)
Writing library : libFLAC 1.3.1 (UTC 2014-11-25)

General
Complete name Martin Krampl - Things That Are Coming (2020) [Hi-Res 5.1]/11. Roaring Mountains (feat. Michael Chapman).flac
Format : FLAC
Format/Info : Free Lossless Audio Codec
File size : 203 MiB
Duration : 4 min 11 s
Overall bit rate mode : Variable
Overall bit rate : 6 776 kb/s
Album : Things That Are Coming
Album/Performer : Martin Krampl
Track name : Roaring Mountains (feat. Michael Chapman)
Track name/Position : 11
Track name/Total : 13
Performer : Martin Krampl feat. Michael Chapman
Genre : Classical crossover
Recorded date : 2020
Cover : Yes
Cover description : cover.jpg
Cover type : Cover (front)
Cover MIME : image/jpeg

Audio
Format : FLAC
Format/Info : Free Lossless Audio Codec
Duration : 4 min 11 s
Bit rate mode : Variable
Bit rate : 6 735 kb/s
Channel(s) : 6 channels
Channel positions : Front: L C R, Side: L R, LFE
Sampling rate : 96.0 kHz
Bit depth : 24 bits
Stream size : 202 MiB (99%)
Writing library : libFLAC 1.3.1 (UTC 2014-11-25)

General
Complete name Martin Krampl - Things That Are Coming (2020) [Hi-Res 5.1]/09. Your Life My Life.flac
Format : FLAC
Format/Info : Free Lossless Audio Codec
File size : 323 MiB
Duration : 7 min 47 s
Overall bit rate mode : Variable
Overall bit rate : 5 800 kb/s
Album : Things That Are Coming
Album/Performer : Martin Krampl
Track name : Your Life My Life
Track name/Position : 9
Track name/Total : 13
Performer : Martin Krampl
Genre : Classical crossover
Recorded date : 2020
Cover : Yes
Cover description : cover.jpg
Cover type : Cover (front)
Cover MIME : image/jpeg

Audio
Format : FLAC
Format/Info : Free Lossless Audio Codec
Duration : 7 min 47 s
Bit rate mode : Variable
Bit rate : 5 778 kb/s
Channel(s) : 6 channels
Channel positions : Front: L C R, Side: L R, LFE
Sampling rate : 96.0 kHz
Bit depth : 24 bits
Stream size : 322 MiB (100%)
Writing library : libFLAC 1.3.1 (UTC 2014-11-25)

General
Complete name Martin Krampl - Things That Are Coming (2020) [Hi-Res 5.1]/06. And She Was Gone.flac
Format : FLAC
Format/Info : Free Lossless Audio Codec
File size : 129 MiB
Duration : 2 min 55 s
Overall bit rate mode : Variable
Overall bit rate : 6 186 kb/s
Album : Things That Are Coming
Album/Performer : Martin Krampl
Track name : And She Was Gone
Track name/Position : 6
Track name/Total : 13
Performer : Martin Krampl
Genre : Classical crossover
Recorded date : 2020
Cover : Yes
Cover description : cover.jpg
Cover type : Cover (front)
Cover MIME : image/jpeg

Audio
Format : FLAC
Format/Info : Free Lossless Audio Codec
Duration : 2 min 55 s
Bit rate mode : Variable
Bit rate : 6 127 kb/s
Channel(s) : 6 channels
Channel positions : Front: L C R, Side: L R, LFE
Sampling rate : 96.0 kHz
Bit depth : 24 bits
Stream size : 128 MiB (99%)
Writing library : libFLAC 1.3.1 (UTC 2014-11-25)

General
Complete name Martin Krampl - Things That Are Coming (2020) [Hi-Res 5.1]/03. Counting The Times (feat. Bibiana Nwobilo).flac
Format : FLAC
Format/Info : Free Lossless Audio Codec
File size : 255 MiB
Duration : 5 min 38 s
Overall bit rate mode : Variable
Overall bit rate : 6 336 kb/s
Album : Things That Are Coming
Album/Performer : Martin Krampl
Track name : Counting The Times (feat. Bibiana Nwobilo)
Track name/Position : 3
Track name/Total : 13
Performer : Martin Krampl feat. Bibiana Nwobilo
Genre : Classical crossover
Recorded date : 2020
Cover : Yes
Cover description : cover.jpg
Cover type : Cover (front)
Cover MIME : image/jpeg

Audio
Format : FLAC
Format/Info : Free Lossless Audio Codec
Duration : 5 min 38 s
Bit rate mode : Variable
Bit rate : 6 306 kb/s
Channel(s) : 6 channels
Channel positions : Front: L C R, Side: L R, LFE
Sampling rate : 96.0 kHz
Bit depth : 24 bits
Stream size : 254 MiB (100%)
Writing library : libFLAC 1.3.1 (UTC 2014-11-25)

General
Complete name Martin Krampl - Things That Are Coming (2020) [Hi-Res 5.1]/13. The Finale.flac
Format : FLAC
Format/Info : Free Lossless Audio Codec
File size : 123 MiB
Duration : 2 min 33 s
Overall bit rate mode : Variable
Overall bit rate : 6 714 kb/s
Album : Things That Are Coming
Album/Performer : Martin Krampl
Track name : The Finale
Track name/Position : 13
Track name/Total : 13
Performer : Martin Krampl
Genre : Classical crossover
Recorded date : 2020
Cover : Yes
Cover description : cover.jpg
Cover type : Cover (front)
Cover MIME : image/jpeg

Audio
Format : FLAC
Format/Info : Free Lossless Audio Codec
Duration : 2 min 33 s
Bit rate mode : Variable
Bit rate : 6 648 kb/s
Channel(s) : 6 channels
Channel positions : Front: L C R, Side: L R, LFE
Sampling rate : 96.0 kHz
Bit depth : 24 bits
Stream size : 122 MiB (99%)
Writing library : libFLAC 1.3.1 (UTC 2014-11-25)

General
Complete name Martin Krampl - Things That Are Coming (2020) [Hi-Res 5.1]/01. Overture.flac
Format : FLAC
Format/Info : Free Lossless Audio Codec
File size : 168 MiB
Duration : 4 min 14 s
Overall bit rate mode : Variable
Overall bit rate : 5 518 kb/s
Album : Things That Are Coming
Album/Performer : Martin Krampl
Track name : Overture
Track name/Position : 1
Track name/Total : 13
Performer : Martin Krampl
Genre : Classical crossover
Recorded date : 2020
Cover : Yes
Cover description : cover.jpg
Cover type : Cover (front)
Cover MIME : image/jpeg

Audio
Format : FLAC
Format/Info : Free Lossless Audio Codec
Duration : 4 min 14 s
Bit rate mode : Variable
Bit rate : 5 478 kb/s
Channel(s) : 6 channels
Channel positions : Front: L C R, Side: L R, LFE
Sampling rate : 96.0 kHz
Bit depth : 24 bits
Stream size : 166 MiB (99%)
Writing library : libFLAC 1.3.1 (UTC 2014-11-25)

General
Complete name Martin Krampl - Things That Are Coming (2020) [Hi-Res 5.1]/04. All Of Us Are Part Of You (feat. Bibiana Nwobilo).flac
Format : FLAC
Format/Info : Free Lossless Audio Codec
File size : 281 MiB
Duration : 5 min 48 s
Overall bit rate mode : Variable
Overall bit rate : 6 774 kb/s
Album : Things That Are Coming
Album/Performer : Martin Krampl
Track name : All Of Us Are Part Of You (feat. Bibiana Nwobilo)
Track name/Position : 4
Track name/Total : 13
Performer : Martin Krampl feat. Bibiana Nwobilo
Genre : Classical crossover
Recorded date : 2020
Cover : Yes
Cover description : cover.jpg
Cover type : Cover (front)
Cover MIME : image/jpeg

Audio
Format : FLAC
Format/Info : Free Lossless Audio Codec
Duration : 5 min 48 s
Bit rate mode : Variable
Bit rate : 6 745 kb/s
Channel(s) : 6 channels
Channel positions : Front: L C R, Side: L R, LFE
Sampling rate : 96.0 kHz
Bit depth : 24 bits
Stream size : 280 MiB (100%)
Writing library : libFLAC 1.3.1 (UTC 2014-11-25)

General
Complete name Martin Krampl - Things That Are Coming (2020) [Hi-Res 5.1]/07. If I Were (feat. Arnór Dan).flac
Format : FLAC
Format/Info : Free Lossless Audio Codec
File size : 189 MiB
Duration : 3 min 34 s
Overall bit rate mode : Variable
Overall bit rate : 7 385 kb/s
Album : Things That Are Coming
Album/Performer : Martin Krampl
Track name : If I Were (feat. Arnór Dan)
Track name/Position : 7
Track name/Total : 13
Performer : Martin Krampl feat. Arnór Dan
Genre : Classical crossover
Recorded date : 2020
Cover : Yes
Cover description : cover.jpg
Cover type : Cover (front)
Cover MIME : image/jpeg

Audio
Format : FLAC
Format/Info : Free Lossless Audio Codec
Duration : 3 min 34 s
Bit rate mode : Variable
Bit rate : 7 337 kb/s
Channel(s) : 6 channels
Channel positions : Front: L C R, Side: L R, LFE
Sampling rate : 96.0 kHz
Bit depth : 24 bits
Stream size : 187 MiB (99%)
Writing library : libFLAC 1.3.1 (UTC 2014-11-25)

General
Complete name Martin Krampl - Things That Are Coming (2020) [Hi-Res 5.1]/08. Home Sweet Home.flac
Format : FLAC
Format/Info : Free Lossless Audio Codec
File size : 196 MiB
Duration : 3 min 53 s
Overall bit rate mode : Variable
Overall bit rate : 7 043 kb/s
Album : Things That Are Coming
Album/Performer : Martin Krampl
Track name : Home Sweet Home
Track name/Position : 8
Track name/Total : 13
Performer : Martin Krampl
Genre : Classical crossover
Recorded date : 2020
Cover : Yes
Cover description : cover.jpg
Cover type : Cover (front)
Cover MIME : image/jpeg

Audio
Format : FLAC
Format/Info : Free Lossless Audio Codec
Duration : 3 min 53 s
Bit rate mode : Variable
Bit rate : 6 999 kb/s
Channel(s) : 6 channels
Channel positions : Front: L C R, Side: L R, LFE
Sampling rate : 96.0 kHz
Bit depth : 24 bits
Stream size : 195 MiB (99%)
Writing library : libFLAC 1.3.1 (UTC 2014-11-25)

General
Complete name Martin Krampl - Things That Are Coming (2020) [Hi-Res 5.1]/10. Saudade Pela Vida (Longing For Life).flac
Format : FLAC
Format/Info : Free Lossless Audio Codec
File size : 197 MiB
Duration : 4 min 0 s
Overall bit rate mode : Variable
Overall bit rate : 6 890 kb/s
Album : Things That Are Coming
Album/Performer : Martin Krampl
Track name : Saudade Pela Vida (Longing For Life)
Track name/Position : 10
Track name/Total : 13
Performer : Martin Krampl
Genre : Classical crossover
Recorded date : 2020
Cover : Yes
Cover description : cover.jpg
Cover type : Cover (front)
Cover MIME : image/jpeg

Audio
Format : FLAC
Format/Info : Free Lossless Audio Codec
Duration : 4 min 0 s
Bit rate mode : Variable
Bit rate : 6 848 kb/s
Channel(s) : 6 channels
Channel positions : Front: L C R, Side: L R, LFE
Sampling rate : 96.0 kHz
Bit depth : 24 bits
Stream size : 196 MiB (99%)
Writing library : libFLAC 1.3.1 (UTC 2014-11-25)
Ocena użytkowników Help
Działa(0) | Fake(0) | Nie działa(0) | Wymagane hasło(0) | Wirus(0)
Statystyki seed/leech Ostatnio aktualizowane: 2020-05-27 06:15:06 [Aktualizuj]
Napisano: 23.01.2022 15:44
 
Nikt jeszcze nie skomentował tego torrenta... Może Ty to zrobisz?
Oświadczenie: Pliki prezentowane w katalogu nie znajdują się na serwerach wortalu. Użytkownicy zezwolili na ich udostępnienie. Administrator serwisu BitNova.info oraz właściciel serwera nie może ponieść konsekwencji za to co użytkownicy udostępniają i publikują. Pamiętaj! Nie możesz używać tego serwisu do rozpowszechniania lub ściągania materiałów do których nie masz odpowiednich praw lub licencji. Użytkownicy są odpowiedzialni za przestrzeganie tych zasad.

(Disclaimer: None files presented in the directory aren't hosted on servers vortal. Users allow their release. The administrator of site BitNova.info and owner of the server can not be held responsible for what its users post, or any other actions of its users. You may not use this site to distribute or download any material when you do not have the legal rights to do so. It is your own responsibility to adhere to these terms.)
» Zgłaszanie nadużyć / Abuse