Jedyny taki katalog polskich torrentów w sieci. Najlepsze torrenty w jednym miejscu.

Korzystanie ze strony jest darmowe. W przeciwieństwie do konkurencji nie kasujemy kont użytkowników bez ich wyraźnej prośby.


Torrent: Sirenia - Videography (2007-2011) mp4 [v62]

Sirenia - Videography (2007-2011) mp4 [v62] torrent
Dodał: viola62
03.11.2019 08:35
Kategoria: Teledyski

Rozmiar: 562.63 MB
Seed'ów: 0
Leecher'ów: 0
Pobrań: 0

Kondycja:
 


» Komentarze [0]
» Obserwuj
» Zgłoś plik
...( TrackList )...

Sirenia - My Mind's Eye 3
Sirenia - The Other SIde 6
Sirenia - The Path To Decay
Sirenia - All My Dreams 1
Sirenia - Lost in Life 2
Sirenia - Path to Decay 4
Sirenia - Seven Widows Weep 5
Sirenia - The Lucid Door 7

...( Dane Techniczne )...

Format : MPEG-4
Format profile : Base Media / Version 2
Codec ID : mp42 (isom/mp42)
File size : 53.4 MiB
Duration : 4 min 2 s
Overall bit rate mode : Variable
Overall bit rate : 1 845 kb/s
Encoded date : UTC 2011-12-15 11:59:58
Tagged date : UTC 2011-12-15 11:59:58
gsst : 0
gstd : 242973
gssd : B4A7DDA41HM1375621705520993
gshh : r1---sn-4g57kues.c.youtube.com

Video
ID : 1
Format : AVC
Format/Info : Advanced Video Codec
Format profile : High@L3.1
Format settings : CABAC / 1 Ref Frames
Format settings, CABAC : Yes
Format settings, Reference : 1 frame
Codec ID : avc1
Codec ID/Info : Advanced Video Coding
Duration : 4 min 2 s
Bit rate : 1 690 kb/s
Maximum bit rate : 3 695 kb/s
Width : 1 280 pixels
Height : 720 pixels
Display aspect ratio : 16:9
Frame rate mode : Constant
Frame rate : 30.000 FPS
Color space : YUV
Chroma subsampling : 4:2:0
Bit depth : 8 bits
Scan type : Progressive
Bits/(Pixel*Frame) : 0.061
Stream size : 48.9 MiB (92%)
Encoded date : UTC 1970-01-01 00:00:00
Tagged date : UTC 2011-12-15 11:59:58
Codec configuration box : avcC

Audio
ID : 2
Format : AAC LC
Format/Info : Advanced Audio Codec Low Complexity
Codec ID : mp4a-40-2
Duration : 4 min 2 s
Bit rate mode : Variable
Bit rate : 152 kb/s
Maximum bit rate : 183 kb/s
Channel(s) : 2 channels
Channel layout : L R
Sampling rate : 44.1 kHz
Frame rate : 43.066 FPS (1024 SPF)
Compression mode : Lossy
Stream size : 4.40 MiB (8%)
Title : IsoMedia File Produced by Google, 5-11-2011
Encoded date : UTC 2011-12-15 11:59:58
Tagged date : UTC 2011-12-15 11:59:58

PS...dane techn. jednego pliku

Ocena użytkowników Help
Działa(0) | Fake(0) | Nie działa(0) | Wymagane hasło(0) | Wirus(0)
Statystyki seed/leech Ostatnio aktualizowane: 2019-11-03 08:35:47 [Aktualizuj]
Napisano: 25.06.2021 14:50
 
Nikt jeszcze nie skomentował tego torrenta... Może Ty to zrobisz?
Oświadczenie: Pliki prezentowane w katalogu nie znajdują się na serwerach wortalu. Użytkownicy zezwolili na ich udostępnienie. Administrator serwisu BitNova.info oraz właściciel serwera nie może ponieść konsekwencji za to co użytkownicy udostępniają i publikują. Pamiętaj! Nie możesz używać tego serwisu do rozpowszechniania lub ściągania materiałów do których nie masz odpowiednich praw lub licencji. Użytkownicy są odpowiedzialni za przestrzeganie tych zasad.

(Disclaimer: None files presented in the directory aren't hosted on servers vortal. Users allow their release. The administrator of site BitNova.info and owner of the server can not be held responsible for what its users post, or any other actions of its users. You may not use this site to distribute or download any material when you do not have the legal rights to do so. It is your own responsibility to adhere to these terms.)
» Zgłaszanie nadużyć / Abuse