Jedyny taki katalog polskich torrentów w sieci. Najlepsze torrenty w jednym miejscu.

Korzystanie ze strony jest darmowe. W przeciwieństwie do konkurencji nie kasujemy kont użytkowników bez ich wyraźnej prośby.


Torrent: Szybcy i wściekli: Hobbs i Shaw Fast & Furious presents: Hobbs & Shaw (2019) [1080p] [WEB-DL X264 AC3] [EVO ] [ENG] [Napisy PL]

Szybcy i wściekli: Hobbs i Shaw  Fast & Furious presents: Hobbs & Shaw (2019) [1080p] [WEB-DL X264 AC3] [EVO ] [ENG] [Napisy PL] torrent
Dodał: Ishimura
07.10.2019 05:14
Kategoria: Akcja

Rozmiar: 3.84 GB
Seed'ów: 0
Leecher'ów: 0
Pobrań: 0

Kondycja:
 


» Komentarze [0]
» Obserwuj
» Zgłoś plik
Info

Produkcja: USA, Wielka Brytania
Gatunek: Akcja
Premiera: 2 sierpnia 2019 (Polska), 13 lipca 2019 (świat)
Reżyseria: David Leitch
Scenariusz: Chris Morgan, Drew Pearce
Napisy:

CodeUser image Angielski, User image Bułgarski, User image Polski, User image Czeski, User image Hiszpański

Opis

Od kiedy żyjący w zgodzie z prawem Hobbs (Johnson), lojalny agent Ochrony Służb Dyplomatycznych, oraz były pracownik elitarnych jednostek wojskowych Wielkiej Brytanii, dziś społeczny wyrzutek, Shaw (Statham), spotkali się w 2015 roku (?Szybcy i wściekli 7?), pozostają w nieustannej walce ? na słowa i czyny (choć pewnie lepiej byłoby napisać: ciosy). Ale sytuacja zmienia się, gdy cyber-genetycznie ulepszony anarchista Brixton (Idris Elba) przejmuje kontrolę nad bronią biologiczną, która może zmieść z powierzchni Ziemi ludzkość. Wspólnie z nieustraszoną agentką MI6 (Vanessa Kirby), która okazuje się siostrą Shawa, zajadli przeciwnicy muszą zjednoczyć się we wspólnej sprawie ? by zniszczyć jedynego gościa, który jest gorszy niż oni dwaj.

Obsada

? Dwayne Johnson .... Luke Hobbs
? Jason Statham .... Deckard Shaw
? Idris Elba .... Brixton
? Vanessa Kirby .... Hattie Shaw
? Helen Mirren .... Magdalene Shaw
? Eiza Gonzlez .... Madam M
? Eddie Marsan .... Profesor Andreiko
? Eliana Sua .... Sam Hobbs

Dane Techniczne

napisał:General
Complete name : Fast.and.Furious.Presents.Hobbs.and.Shaw.2019.1080p.WEB-DL.X264.AC3-EVO.mkv
Format : Matroska
Format version : Version 4 / Version 2
File size : 3.84 GiB
Duration : 2h 15mn
Overall bit rate : 4 043 Kbps
Movie name : EVO
Encoded date : UTC 2019-10-03 06:48:45
Writing application : mkvmerge v9.9.0 ('Pick Up') 32bit
Writing library : libebml v1.3.4 + libmatroska v1.4.5

Video
ID : 1
Format : AVC
Format/Info : Advanced Video Codec
Format profile : HighL4.1
Format settings, CABAC : Yes
Format settings, ReFrames : 4 frames
Codec ID : V_MPEG4/ISO/AVC
Duration : 2h 15mn
Bit rate : 3 657 Kbps
Width : 1 920 pixels
Height : 800 pixels
Display aspect ratio : 2.40:1
Frame rate mode : Constant
Frame rate : 23.976 (24000/1001) fps
Color space : YUV
Chroma subsampling : 4:2:0
Bit depth : 8 bits
Scan type : Progressive
Bits/(PixelFrame) : 0.099
Stream size : 3.47 GiB (90)
Default : Yes
Forced : No
Color range : Limited
Color primaries : BT.709
Transfer characteristics : BT.709
Matrix coefficients : BT.709

Audio
ID : 2
Format : AC-3
Format/Info : Audio Coding 3
Mode extension : CM (complete main)
Format settings, Endianness : Big
Codec ID : A_AC3
Duration : 2h 15mn
Bit rate mode : Constant
Bit rate : 384 Kbps
Channel(s) : 2 channels
Channel positions : Front: L R
Sampling rate : 48.0 KHz
Frame rate : 31.250 fps (1536 spf)
Compression mode : Lossy
Delay relative to video : 68ms
Stream size : 373 MiB (9)
Language : English
Default : Yes
Forced : No

Text #1
ID : 3
Format : UTF-8
Codec ID : S_TEXT/UTF8
Codec ID/Info : UTF-8 Plain Text
Duration : 2h 1mn
Bit rate : 61 bps
Count of elements : 1947
Stream size : 54.9 KiB (0)
Language : English
Default : Yes
Forced : No

Text #2
ID : 4
Format : UTF-8
Codec ID : S_TEXT/UTF8
Codec ID/Info : UTF-8 Plain Text
Duration : 2h 15mn
Bit rate : 54 bps
Count of elements : 1896
Stream size : 53.6 KiB (0)
Language : Polish
Default : No
Forced : No

Text #3
ID : 5
Format : UTF-8
Codec ID : S_TEXT/UTF8
Codec ID/Info : UTF-8 Plain Text
Duration : 2h 15mn
Bit rate : 50 bps
Count of elements : 1560
Stream size : 50.4 KiB (0)
Language : Czech
Default : No
Forced : No

Text #4
ID : 6
Format : UTF-8
Codec ID : S_TEXT/UTF8
Codec ID/Info : UTF-8 Plain Text
Duration : 2h 4mn
Bit rate : 68 bps
Count of elements : 2037
Stream size : 62.5 KiB (0)
Language : Spanish
Default : No
Forced : No

Text #5
ID : 7
Format : UTF-8
Codec ID : S_TEXT/UTF8
Codec ID/Info : UTF-8 Plain Text
Duration : 2h 5mn
Bit rate : 96 bps
Count of elements : 1217
Stream size : 88.9 KiB (0)
Language : Bulgarian
Default : No
Forced : No


Screenshot / Wideo

User image
User image
User image
User image
User image
User image
User image
User image
User image
User image
User image
User image
User image

https://www.youtube.com/watch?v=HZ7PAyCDwEg
Ocena użytkowników Help
Działa(0) | Fake(0) | Nie działa(0) | Wymagane hasło(0) | Wirus(0)
Statystyki seed/leech Ostatnio aktualizowane: 2020-12-28 13:02:00 [Aktualizuj]
Napisano: 09.03.2021 08:55
 
Nikt jeszcze nie skomentował tego torrenta... Może Ty to zrobisz?
Oświadczenie: Pliki prezentowane w katalogu nie znajdują się na serwerach wortalu. Użytkownicy zezwolili na ich udostępnienie. Administrator serwisu BitNova.info oraz właściciel serwera nie może ponieść konsekwencji za to co użytkownicy udostępniają i publikują. Pamiętaj! Nie możesz używać tego serwisu do rozpowszechniania lub ściągania materiałów do których nie masz odpowiednich praw lub licencji. Użytkownicy są odpowiedzialni za przestrzeganie tych zasad.

(Disclaimer: None files presented in the directory aren't hosted on servers vortal. Users allow their release. The administrator of site BitNova.info and owner of the server can not be held responsible for what its users post, or any other actions of its users. You may not use this site to distribute or download any material when you do not have the legal rights to do so. It is your own responsibility to adhere to these terms.)
» Zgłaszanie nadużyć / Abuse