Jedyny taki katalog polskich torrentów w sieci. Najlepsze torrenty w jednym miejscu.

Korzystanie ze strony jest darmowe. W przeciwieństwie do konkurencji nie kasujemy kont użytkowników bez ich wyraźnej prośby.


Torrent: Diagnoza S04E04 [720p.WEB-DL.H.264.AC3] [PL]

Diagnoza S04E04 [720p.WEB-DL.H.264.AC3] [PL] torrent
Dodał: Ishimura
15.03.2019 08:35
Kategoria: Seriale obyczajowe

Rozmiar: 1.00 GB
Seed'ów: 203
Leecher'ów: 4
Pobrań: 66

Kondycja:
 


» Komentarze [0]
» Obserwuj
» Zgłoś plik
Info

produkcja: PL
gatunek: Obyczajowy, Kryminalny
reżyseria: Łukasz Kośmicki
scenariusz: Dana Łukasińska, Hanna Węsierska
zdjęcia: Jeremi Prokopowicz, Krzysztof Mieszkowski
muzyka: Łukasz Targosz
czas trwania: ok. 41 min.

Opis

W czwartym sezonie Jan Artman, który został ordynatorem oddziału chirurgii, będzie się zmagał z mroczną przeszłością i zbrodnią, której się dopuścił. Czy dosięgnie go zemsta Bogny, czy jednak przebiegły lekarz uniknie konsekwencji swoich czynów? Do personelu rybnickiego szpitala dołączy Szymon Brock. Uznany pediatra oraz toksykolog, ale przede wszystkim wolny duch i ekolog żyjący w zgodzie z naturą robi potężne wrażenie. Jedynie Piotr Sadzik podchodzi do niego z dystansem. W tym czasie partner Leśniewskiej, Michał, coraz bardziej popada w uzależnienie od leków...

Obsada

Adam Woronowicz - Jan Artman
Maja Ostaszewska - Anna Nowak
Maciej Zakościelny - Michał Wolski
Michał Czernecki - Piotr Sadzik
Magdalena Popławska - Marta Artman
Sonia Bohosiewicz - Wanda Jureczko
Aleksandra Adamska - Dagmara Mazurek

Dane Techniczne

Format : Matroska
Format version : Version 4 / Version 2
File size : 1.00 GiB
Duration : 41 min 17 s
Overall bit rate mode : Variable
Overall bit rate : 3 478 kb/s
Encoded date : UTC 2019-03-13 07:31:50

Video
ID : 1
Format : AVC
Format/Info : Advanced Video Codec
Format profile : HighL3.1
Format settings : CABAC / 5 Ref Frames
Format settings, CABAC : Yes
Format settings, ReFrames : 5 frames
Codec ID : V_MPEG4/ISO/AVC
Duration : 41 min 17 s
Bit rate mode : Variable
Bit rate : 3 092 kb/s
Maximum bit rate : 4 500 kb/s
Width : 1 280 pixels
Height : 720 pixels
Display aspect ratio : 16:9
Frame rate mode : Constant
Frame rate : 25.000 FPS
Color space : YUV
Chroma subsampling : 4:2:0
Bit depth : 8 bits
Scan type : Progressive
Bits/(PixelFrame) : 0.134
Stream size : 913 MiB (89)
Default : Yes
Forced : Yes
Color range : Limited
Color primaries : BT.709
Transfer characteristics : BT.709
Matrix coefficients : BT.709

Audio
ID : 2
Format : AC-3
Format/Info : Audio Coding 3
Commercial name : Dolby Digital
Codec ID : A_AC3
Duration : 41 min 17 s
Bit rate mode : Constant
Bit rate : 384 kb/s
Channel(s) : 2 channels
Channel layout : L R
Sampling rate : 48.0 kHz
Frame rate : 31.250 FPS (1536 SPF)
Bit depth : 16 bits
Compression mode : Lossy
Stream size : 113 MiB (11)
Language : Polish
Service kind : Complete Main
Default : Yes
Forced : Yes
Ocena użytkowników Help
Działa(0) | Fake(0) | Nie działa(0) | Wymagane hasło(0) | Wirus(0)
Statystyki seed/leech Ostatnio aktualizowane: 2019-03-23 21:06:27 [Aktualizuj]
Napisano: 24.03.2019 04:44
 
Nikt jeszcze nie skomentował tego torrenta... Może Ty to zrobisz?
Oświadczenie: Pliki prezentowane w katalogu nie znajdują się na serwerach wortalu. Użytkownicy zezwolili na ich udostępnienie. Administrator serwisu BitNova.info oraz właściciel serwera nie może ponieść konsekwencji za to co użytkownicy udostępniają i publikują. Pamiętaj! Nie możesz używać tego serwisu do rozpowszechniania lub ściągania materiałów do których nie masz odpowiednich praw lub licencji. Użytkownicy są odpowiedzialni za przestrzeganie tych zasad.

(Disclaimer: None files presented in the directory aren't hosted on servers vortal. Users allow their release. The administrator of site BitNova.info and owner of the server can not be held responsible for what its users post, or any other actions of its users. You may not use this site to distribute or download any material when you do not have the legal rights to do so. It is your own responsibility to adhere to these terms.)
» Zgłaszanie nadużyć / Abuse