Jedyny taki katalog polskich torrentów w sieci. Najlepsze torrenty w jednym miejscu.

Korzystanie ze strony jest darmowe. W przeciwieństwie do konkurencji nie kasujemy kont użytkowników bez ich wyraźnej prośby.


Torrent: Mystic Game Eclipse [2017] [720p] [BDRIP] [AC3 5 1] [x264] [napisy PL]

Mystic Game Eclipse  [2017] [720p] [BDRIP] [AC3 5 1] [x264] [napisy PL] torrent
Dodał: Ishimura
20.12.2018 10:53
Kategoria: Akcja

Rozmiar: 944.42 MB
Seed'ów: 0
Leecher'ów: 0
Pobrań: 0

Kondycja:
 


» Komentarze [0]
» Obserwuj
» Zgłoś plik
Pobrałeś/aś podziękuj sedując . Daj szanse innym pobrać

...::INFO::...

Reżyseria: Artyom Aksenenko
Scenariusz: Oleg Sirotkin
Gatunek: Fantasy, Przygodowy, Romans
Produkcja: Rosja
Premiera: 13 Grudzień 2016 (Włochy)

...::O FILMIE::...

https://www.imdb.com/title/tt5178170/?ref_=ttmi_tt

...::OPIS::...

Czarujący poszukiwacz przygód został wciągnięty w walkę potężnych czarodziejów. Aby ocalić siebie i swoją ukochaną, musi znaleźć wyjście z tej mistycznej gry

...::OBSADA::...

...::DANE TECHNICZNE::...

Video
ID : 1
Format : AVC
Format/Info : Advanced Video Codec
Format profile : High at L4.1
Format settings, CABAC : Yes
Format settings, ReFrames : 4 frames
Codec ID : V_MPEG4/ISO/AVC
Duration : 1h 20mn
Bit rate : 1 200 Kbps
Width : 1 280 pixels
Height : 704 pixels
Display aspect ratio : 16:9
Frame rate mode : Constant
Frame rate : 25.000 fps
Color space : YUV
Chroma subsampling : 4:2:0
Bit depth : 8 bits
Scan type : Progressive
Bits/(PixelFrame) : 0.053
Stream size : 687 MiB (73)
Writing library : x264 core 142 r2479 dd79a61
Color primaries : BT.709
Transfer characteristics : BT.709
Matrix coefficients : BT.709

Audio
ID : 2
Format : AC-3
Format/Info : Audio Coding 3
Mode extension : CM (complete main)
Format settings, Endianness : Big
Codec ID : A_AC3
Duration : 1h 20mn
Bit rate mode : Constant
Bit rate : 448 Kbps
Channel(s) : 6 channels
Channel positions : Front: L C R, Side: L R, LFE
Sampling rate : 48.0 KHz
Frame rate : 31.250 fps (1536 spf)
Compression mode : Lossy
Stream size : 256 MiB (27)
Title : DD 5.1 at 448 kbps [Blu-ray ITA]
Language : Russian
Default : Yes
Forced : No

Text
ID : 3
Format : UTF-8
Codec ID : S_TEXT/UTF8
Codec ID/Info : UTF-8 Plain Text
Ocena użytkowników Help
Działa(0) | Fake(0) | Nie działa(0) | Wymagane hasło(0) | Wirus(0)
Statystyki seed/leech Ostatnio aktualizowane: 2020-10-02 08:13:45 [Aktualizuj]
Napisano: 09.12.2021 01:12
 
Nikt jeszcze nie skomentował tego torrenta... Może Ty to zrobisz?
Oświadczenie: Pliki prezentowane w katalogu nie znajdują się na serwerach wortalu. Użytkownicy zezwolili na ich udostępnienie. Administrator serwisu BitNova.info oraz właściciel serwera nie może ponieść konsekwencji za to co użytkownicy udostępniają i publikują. Pamiętaj! Nie możesz używać tego serwisu do rozpowszechniania lub ściągania materiałów do których nie masz odpowiednich praw lub licencji. Użytkownicy są odpowiedzialni za przestrzeganie tych zasad.

(Disclaimer: None files presented in the directory aren't hosted on servers vortal. Users allow their release. The administrator of site BitNova.info and owner of the server can not be held responsible for what its users post, or any other actions of its users. You may not use this site to distribute or download any material when you do not have the legal rights to do so. It is your own responsibility to adhere to these terms.)
» Zgłaszanie nadużyć / Abuse