Jedyny taki katalog polskich torrentów w sieci. Najlepsze torrenty w jednym miejscu.

Korzystanie ze strony jest darmowe. W przeciwieństwie do konkurencji nie kasujemy kont użytkowników bez ich wyraźnej prośby.


Torrent: Martwy spust/Dead Trigger (2018)[WebRip 1080p x264 by alE13 AC3][Napisy PL][Eng]

Martwy spust/Dead Trigger (2018)[WebRip 1080p x264 by alE13 AC3][Napisy PL][Eng] torrent
Dodał: alE13
04.12.2018 21:14
Kategoria: Akcja

Rozmiar: 7.55 GB
Seed'ów: 0
Leecher'ów: 0
Pobrań: 0

Kondycja:
 


» Komentarze [0]
» Obserwuj
» Zgłoś plik
User image

https://www.imdb.com/title/tt5662550/
https://www.filmweb.pl/film/Dead+Trigger-2017-773270

Plik zawiera Sample.

reżyseria: Scott Windhauser
scenariusz: Heinz Treschnitzer,Mike Cuff
gatunek: Horror,Akcja
produkcja: USA
premiera: 28-06-2017
muzyka: Stephen Edwards
czas: 01:30:58

opis:

A mysterious virus has killed billions and turned many others into bloodthirsty zombies. Unable
to stop the virus, the government develops a video game, "Dead Trigger," that mirrors the terrifying
events that curse the world.

Tajemniczy wirus zabił miliardy ludzi i zamienił wielu innych w krwiożercze zombie. Nie mogąc
powstrzymać wirusa, rząd opracowuje grę wideo "Dead Trigger", która odzwierciedla przerażające
wydarzenia, które zawładnęły świat.

User image
User image
User image
User image

obsada:

Dolph Lundgren, Autumn Reeser, Romeo Miller

dane techniczne:

Dead Trigger (2018)-alE13.mkv
Format : Matroska
Format version : Version 4 / Version 2
File size : 7.47 GiB
Duration : 1 h 30 min
Overall bit rate : 11.8 Mb/s
Movie name : Dead Trigger (2018)-alE13
Encoded date : UTC 2018-12-04 19:39:25
Writing application : mkvmerge v8.1.0 ('Psychedelic Postcard') 64bit
Writing library : libebml v1.3.1 + libmatroska v1.4.2
Cover : Yes
Attachments : Cover.jpg

Video
ID : 1
Format : AVC
Format/Info : Advanced Video Codec
Format profile : High@L4.1
Format settings : CABAC / 2 Ref Frames
Format settings, CABAC : Yes
Format settings, ReFrames : 2 frames
Format settings, GOP : M=3, N=24
Codec ID : V_MPEG4/ISO/AVC
Duration : 1 h 30 min
Bit rate : 11.3 Mb/s
Width : 1 920 pixels
Height : 812 pixels
Display aspect ratio : 2.35:1
Frame rate mode : Constant
Frame rate : 24.000 FPS
Color space : YUV
Chroma subsampling : 4:2:0
Bit depth : 8 bits
Scan type : Progressive
Bits/(Pixel*Frame) : 0.302
Stream size : 7.18 GiB (96%)
Title : Dead Trigger (2018)-alE13
Writing library : x264 core 142
Default : Yes
Forced : No
Color range : Limited
Color primaries : BT.709
Transfer characteristics : BT.709
Matrix coefficients : BT.709

Audio
ID : 2
Format : AC-3
Format/Info : Audio Coding 3
Codec ID : A_AC3
Duration : 1 h 30 min
Bit rate mode : Constant
Bit rate : 448 kb/s
Channel(s) : 6 channels
Channel positions : Front: L C R, Side: L R, LFE
Sampling rate : 48.0 kHz
Frame rate : 31.250 FPS (1536 SPF)
Bit depth : 16 bits
Compression mode : Lossy
Stream size : 291 MiB (4%)
Title : Dead Trigger (2018)-alE13_AC3
Language : English
Service kind : Complete Main
Default : No
Forced : No

Text
ID : 3
Format : UTF-8
Codec ID : S_TEXT/UTF8
Codec ID/Info : UTF-8 Plain Text
Duration : 1 h 25 min
Bit rate : 38 b/s
Count of elements : 648
Stream size : 24.0 KiB (0%)
Title : Dead Trigger (2018)-alE13
Language : Polish
Default : Yes
Forced : No

Menu
00:00:00.000 : en:1
00:15:00.000 : en:2
00:30:00.000 : en:3
00:45:00.000 : en:4
01:00:00.000 : en:5
01:15:00.000 : en:6
01:27:13.000 : en:7
Ocena użytkowników Help
Działa(0) | Fake(0) | Nie działa(0) | Wymagane hasło(0) | Wirus(0)
Statystyki seed/leech Ostatnio aktualizowane: 2021-01-13 12:11:59 [Aktualizuj]
Napisano: 28.11.2021 06:34
 
Nikt jeszcze nie skomentował tego torrenta... Może Ty to zrobisz?
Oświadczenie: Pliki prezentowane w katalogu nie znajdują się na serwerach wortalu. Użytkownicy zezwolili na ich udostępnienie. Administrator serwisu BitNova.info oraz właściciel serwera nie może ponieść konsekwencji za to co użytkownicy udostępniają i publikują. Pamiętaj! Nie możesz używać tego serwisu do rozpowszechniania lub ściągania materiałów do których nie masz odpowiednich praw lub licencji. Użytkownicy są odpowiedzialni za przestrzeganie tych zasad.

(Disclaimer: None files presented in the directory aren't hosted on servers vortal. Users allow their release. The administrator of site BitNova.info and owner of the server can not be held responsible for what its users post, or any other actions of its users. You may not use this site to distribute or download any material when you do not have the legal rights to do so. It is your own responsibility to adhere to these terms.)
» Zgłaszanie nadużyć / Abuse